<?xml version="1.0" standalone="no"?>
<!DOCTYPE svg PUBLIC "-//W3C//DTD SVG 1.1//EN" "http://www.w3.org/Graphics/SVG/1.1/DTD/svg11.dtd" >
<svg xmlns="http://www.w3.org/2000/svg">
<metadata>Generated by IcoMoon</metadata>
<defs>
<font id="icomoon" horiz-adv-x="1024">
<font-face units-per-em="1024" ascent="960" descent="-64" />
<missing-glyph horiz-adv-x="1024" />
<glyph unicode="&#x20;" horiz-adv-x="512" d="" />
<glyph unicode="&#xe900;" glyph-name="1" d="M486.571-63.886c-271.758 0-486.571 214.869-486.571 486.628s214.812 486.571 486.571 486.571c271.758 0 486.571-214.812 486.571-486.571s-214.812-486.628-486.571-486.628zM486.571 801.166c-183.922 0-378.482-178.233-378.482-378.425 0-200.306 194.56-428.146 378.482-428.146 237.625 0 378.425 227.84 378.425 428.146 0 200.192-140.8 378.425-378.425 378.425zM648.761 314.596h-216.292c-19.854 0-54.044 34.19-54.044 54.101v216.235c0 19.854 34.19 54.044 54.044 54.044 19.911 0 54.101-34.19 54.101-54.044v-162.19h162.19c19.854 0 54.044-57.799 54.044-54.044 0-19.911-34.19-54.101-54.044-54.101z" />
<glyph unicode="&#xe901;" glyph-name="2" d="M511.162 935.61c-203.823 0-352.908-202.752-352.908-369.897 0-80.71 8.704-157.417 56.972-221.743l273.175-368.081c0.652-0.884 1.722-1.257 2.467-2.001 5.062-5.808 12.473-9.458 20.737-9.458 9.16 0 17.273 4.485 22.262 11.379l0.055 0.080c78.662 105.007 222.86 301.149 278.295 339.456l0.047 0.931 0.326 5.12c44.684 92.951 68.282 167.005 68.282 244.317 0 167.145-165.841 369.897-369.711 369.897zM511.069 295.657c-148.527 0-251.811 121.484-251.811 269.917 0 148.62 103.331 270.103 251.811 270.103 148.527 0 269.917-121.437 269.917-270.010 0-148.527-121.391-270.010-269.917-270.010z" />
<glyph unicode="&#xe902;" glyph-name="3" d="M102.349 826.88c-51.405 0-102.349-45.568-102.349-97.126v-563.251c0-87.142 49.766-102.451 102.349-102.451h819.2c64.563 0 102.4 15.309 102.4 102.451v563.251c0 44.39-26.061 97.126-102.4 97.126h-819.2zM530.944 479.539l-342.733 250.214h642.97l-300.237-250.214zM870.349 166.502h-716.8c-24.832 0-51.2 26.266-51.2 51.2v460.749l409.6-307.149 409.6 307.149v-460.749c0-24.934-26.317-51.2-51.2-51.2z" />
<glyph unicode="&#xe903;" glyph-name="4" d="M220.774 514.816c79.306-153.456 201.34-275.407 350.344-352.484l4.523-2.127 118.426 118.733c14.848 8.806 36.096 19.149 54.682-7.066 60.314 0.307 156.979-10.445 192.256-10.445 29.85 0 53.811-23.962 53.811-53.811v-188.57c0-29.798-23.962-53.811-53.811-53.811-505.651 0-915.456 409.805-915.456 915.456 0 29.901 24.269 53.862 53.862 53.862h188.467c29.901 0 53.862-23.962 53.862-53.862 0-67.072 10.752-131.994 30.669-192.256 5.939-18.586 1.638-77.107-13.158-54.63l-118.477-118.989z" />
<glyph unicode="&#xe904;" glyph-name="5" d="M476.587 920.576c230.827 0 423.936-193.109 423.936-435.456 0-97.707-36.139-192.128-96.384-266.155l207.488-180.224-90.24-89.088-180.224 206.336c-74.069-60.245-168.448-96.427-264.576-96.427-243.925 0-437.035 193.152-437.035 425.557 0 242.347 193.109 435.456 437.035 435.456zM476.587 142.507c181.717 0 342.187 159.317 342.187 342.613 0 193.195-160.469 341.76-342.187 341.76-194.773 0-342.187-148.565-342.187-341.76 0-183.296 147.413-342.613 342.187-342.613z" />
<glyph unicode="&#xe905;" glyph-name="6" d="M639.104 17.6c25.216-25.6 70.72-42.88 96.832-17.088 25.28 24.704 25.28 103.232 0 127.936l-256 256.064c32.064 0-35.904 31.296-35.904 64.128 0 31.424 35.904 63.744 35.904 63.744l256 256c25.28 25.728 25.28 103.232 0 128-26.112 25.728-71.68 5.056-96.832-20.672l-394.176-383.552c30.272-24.832 30.272-66.176 0-90.88l394.176-383.68z" />
<glyph unicode="&#xe906;" glyph-name="7" d="M384.832 17.6c-25.28-25.6-70.72-42.88-96.832-17.088-25.28 24.704-25.28 103.232 0 127.936l256 256.064c-0.384 0 35.904 31.296 35.904 64.128 0 31.424-35.904 63.744-35.904 63.744l-256 256c-25.28 25.728-25.28 103.232 0 128 26.112 25.728 71.616 5.056 96.832-20.672l394.112-383.552c72.256-24.832 72.256-66.176 0-90.88l-394.112-383.68z" />
<glyph unicode="&#xe907;" glyph-name="8" d="M128 601.173c-71.595 32.427-71.68 87.211 0 120.661-6.485-49.408 118.613-49.408 82.261 0l301.653-301.739 301.739 301.739c33.195-49.408 88.661-49.408 120.661 0 33.195-33.451 33.28-88.32 0-120.661l-362.069-362.069c-15.394-15.541-36.739-25.163-60.331-25.163s-44.937 9.622-60.324 25.156l-0.007 0.007-323.584 362.069z" />
<glyph unicode="&#xe908;" glyph-name="9" d="M764.9 539.44l-66.366-72.344c-2.186-2.74 1.411-10.24 4.76-9.105l274.764-290.899c33.903-17.685 33.903-72.842 0-106.69-33.322-33.322-24.355-35.84-81.975-81.948-15.74-15.711-37.469-25.426-61.468-25.426s-45.727 9.715-61.469 25.427l0.001-0.001-252.845 274.681c-25.268 3.349-28.312 6.947-31.024 10.738l-56.154-72.344c-4.677-64.844-25.462-132.151-64.484-179.145-87.068-103.507-215.76-103.23-294.829 0-68.553 79.042-68.553 207.706 0 286.775 36.828 36.689 87.631 59.372 143.732 59.372 12.524 0 24.785-1.13 36.684-3.295l-1.244 0.188 71.542 71.514-22.971 22.971c-11.319 5.84-11.319 29.668 0 40.988l20.48 20.452-147.235 147.235h-69.964c-12.454 0-23.552 7.971-27.482 19.788l-61.468 184.403c-0.949 2.736-1.497 5.889-1.497 9.169 0 7.989 3.249 15.22 8.497 20.442l40.961 40.989c7.777 7.777 27.482 10.461 29.668 7.002l194.864-61.44c1.384-21.615 9.354-15.028 9.354-27.51v-69.936l166.94-147.207 0.803 13.533c11.319 18.266 29.668 18.266 40.988 0l22.971-16.024 71.542 71.542c-11.513 64.816 21.725 132.179 56.265 179.117 60.693 60.693 153.489 68.414 253.288 39.659-4.4-8.607-0.277-32.519-14.419-60.084-17.187-3.764-2.602 11.264-83.857-73.174v-38.192h38.22c84.438 81.228 69.411 66.615 86.625 83.857 14.142 7.86 38.026 10.019 46.661-8.026 12.445-25.545 19.72-55.575 19.72-87.304 0-56.033-22.69-106.766-59.382-143.514l0.002 0.002c-36.818-36.679-87.608-59.357-143.694-59.357-12.548 0-24.831 1.135-36.751 3.308l1.245-0.188zM282.762 303.229c-7.334-7.306-17.989-34.844-27.98-15.747-49.899 21.559-103.535-3.044-140.011-29.281-26.174-26.232-42.358-62.44-42.358-102.428s16.185-76.196 42.361-102.43l-0.003 0.003c26.241-26.177 62.458-42.363 102.455-42.363s76.215 16.186 102.458 42.366l-0.003-0.003c26.203 26.299 42.403 62.58 42.403 102.644 0 13.277-1.779 26.139-5.112 38.359l0.237-1.020c-0.626 2.246-0.986 4.824-0.986 7.487 0 7.994 3.243 15.23 8.486 20.465v0l102.76 102.732c-11.070 16.882-34.346 45.443-62.962 51.2-11.319-9.963-22.694 3.902-37.141 12.565l-84.605-84.549zM248.278 749.001c-5.244 5.251-8.489 12.5-8.496 20.506v61.054l-147.594 49.18-15.664-15.637 49.207-147.594h61.080c14.391 0 15.056-3.044 20.48-8.469l155.731-155.703 40.988 40.96-155.731 155.703zM524.371 540.464c-1.993 9.936-2.546 16.993-9.825 24.272l-28.589 28.561-122.935-122.908 28.561-28.561c7.306-7.279 14.336-21.504 31.024-28.976 50.813 7.694 95.426-36.947 106.939-94.457 1.993-9.991 2.518-17.021 9.797-39.493l274.792-259.487c5.247-5.24 12.492-8.48 20.494-8.48s15.247 3.24 20.494 8.48v0l20.48 20.48-261.203 266.627c-16.799 11.292-16.799 29.668 0 40.96 5.84 11.319 42.621 11.319 35.48 0l266.683-266.627 20.508 14.281c11.292 17.519 11.292 35.895 0 47.187l-274.764 274.709c-7.306 7.279-14.336 7.832-10.821 9.825-70.988 11.485-115.629 56.099-127.114 113.609zM944.017 760.265l-61.8-59.447c-5.198-5.017-12.284-8.109-20.092-8.109h-78.848c-16.007 0.016-28.976 12.995-28.976 29.004 0 0 0 0 0 0v0 78.82c0 7.472 2.906 14.668 8.109 10.849l59.447 71.016c-22.86 6.531-90.693-30.609-123.655-40.905-26.19-26.289-42.382-62.553-42.382-102.6 0-13.283 1.781-26.15 5.119-38.376l-0.237 1.020c2.657-10.019-0.194-42.095-7.5-27.98l-84.605-84.577c8.746-14.585 10.406-26.154 12.592-37.141 5.729-28.617 25.102-51.864 51.2-68.414l102.76 108.212c7.334-4.428 17.962 10.157 27.98-2.214 49.872-3.626 103.535 8.026 139.984 47.215 26.225 26.253 42.444 62.506 42.444 102.548 0 7.438-0.56 14.745-1.639 21.881l0.1-0.802zM155.759 94.305c-33.875 20.203-33.875 73.341 0 122.908 33.986 33.986 88.977 33.986 140.648 0 16.19-49.567 16.19-102.704 0-122.908-51.67-33.958-106.662-33.958-140.648 0zM237.734 176.253c-5.274 5.441-12.65 8.817-20.815 8.817-16.003 0-28.976-12.973-28.976-28.976 0-8.158 3.371-15.528 8.796-20.794l0.007-0.007c5.21-5.058 12.328-8.176 20.173-8.176 16.003 0 28.976 12.973 28.976 28.976 0 7.839-3.113 14.95-8.169 20.167l0.007-0.007z" />
<glyph unicode="&#xe909;" glyph-name="10" d="M981.861 346.914h-283.609c-13.099 0-23.707 10.626-23.707 14.143v15.36c-33.154-8.211-63.218-24.209-83.775-51.625-7.864-10.472-22.721-17.64-33.212-4.753-5.782 4.371-9.48 11.235-9.48 18.963 0 5.366 1.783 10.316 4.789 14.29l-0.043-0.059c28.841 38.149 71.701 64.385 120.782 71.035l0.939 0.104v50.543c-50.019 6.754-92.879 32.99-121.39 70.682l-0.331 0.457c-2.653 3.777-4.239 8.471-4.239 13.535 0 13.103 10.622 23.726 23.726 23.726 7.437 0 14.075-3.422 18.425-8.777l0.034-0.044c20.080-26.571 49.32-45.297 82.948-51.499l0.826-0.127v5.796c0 13.099 10.607 23.687 23.707 23.687h283.609c13.099 0 31.705-10.588 31.705-23.687v-167.608c0-3.516-18.606-14.143-31.705-14.143zM958.155 495.915l-236.196-0.193v-101.376h236.196v101.569zM641.913 643.101c-4.174-7.143-11.804-11.865-20.537-11.865-4.361 0-8.446 1.177-11.956 3.231l0.112-0.061c-11.361 4.289-15.244 21.040 8.347 32.382l14.568 54.736c19.243 11.341 21.060 5.854 32.401 8.675 11.341-6.53 15.225-21.040 8.675-44.36l-31.609-42.738zM507.17 125.653c-17.447 0.019-28.054 10.626-28.073 23.707v63.218c0.019 13.099 10.626 23.707 28.073 23.726 8.752 0 19.359-10.626 19.359-23.726v-63.218c0-13.080-10.626-23.687-19.359-23.707zM507.17 662.982c-17.447 0-28.073 10.607-28.073 23.707v63.237c0 13.061 10.626 23.687 28.073 23.687 8.733 0 19.359-10.626 19.359-23.687v-63.237c0-13.099-10.607-23.707-19.359-23.707zM452.801 353.232c2.963-3.914 4.746-8.864 4.746-14.23 0-7.728-3.698-14.592-9.42-18.92l-0.060-0.043c-10.472-12.887-25.33-5.719-33.212 4.753-20.557 27.416-50.601 43.414-83.755 51.625v-15.36c0-3.516-10.626-14.143-23.726-14.143h-283.609c-13.080 0-17.968 10.626-17.968 14.143v167.588c0 13.119 4.888 23.707 17.968 23.707h283.609c13.099 0 23.726-10.588 23.726-23.687v-5.796c34.451 6.338 63.689 25.061 83.53 51.288l0.245 0.337c4.379 5.587 11.127 9.144 18.707 9.144 13.093 0 23.707-10.614 23.707-23.707 0-5.212-1.682-10.032-4.533-13.945l0.047 0.068c-28.839-38.148-71.701-64.38-120.784-71.016l-0.937-0.104v-50.582c50.020-6.74 92.882-32.971 121.39-70.663l0.331-0.456zM283.667 495.722l-236.177 0.193v-101.589h236.177v101.395zM363.733 643.101l-31.628 42.738c-6.55 23.32 6.202 37.83 8.675 44.36 11.341-2.821 25.851 2.666 32.401-8.675l31.609-54.736c6.55-11.341 18.142-28.092-8.675-32.382-3.398-1.994-7.484-3.171-11.844-3.171-8.733 0-16.364 4.722-20.477 11.753l-0.061 0.112zM363.733 256.184c4.164 7.142 11.788 11.865 20.515 11.865 4.37 0 8.464-1.185 11.978-3.25l-0.111 0.060c26.817-6.53 15.225-21.040 8.675-32.362l-31.609-54.755c-4.18-7.136-11.81-11.852-20.541-11.852-4.367 0-8.458 1.18-11.972 3.238l0.112-0.061c-2.473-10.684-15.225 21.040-8.675 32.362l31.628 54.755zM641.913 256.184l31.609-54.755c6.55-11.322 2.666-43.047-8.675-32.362-11.341-6.55-13.157-2.647-32.401 8.675l-14.568 54.755c-23.591 11.322-19.707 25.832-8.366 32.362 3.404 2.002 7.497 3.184 11.867 3.184 8.731 0 16.359-4.72 20.473-11.747l0.061-0.112z" />
<glyph unicode="&#xe90a;" glyph-name="11" d="M85.811 424.994l41.097 32.836c33.041 30.993 143.428 30.857 117.214-0.273l107.383-107.247 482.031 546.475c15.155 17.067 36.591 27.102 108.544 27.853-26.419 0.683-4.301-8.055 11.81-24.098 31.744-31.471 32.427-133.052 1.57-115.029-140.834-147.661-446.942-482.236-502.17-757.146-44.373-14.814-57.685-35.703-73.318-49.357-15.565-13.653-30.583 29.286 9.148 43.008-108.749 108.066-194.219 200.363-297.233 269.995-6.554 14.473-35.567 38.707-36.796 64.922-1.161 26.283 10.24 3.004 30.72 68.062z" />
<glyph unicode="&#xe90b;" glyph-name="12" d="M138.304 194.56c-10.792 0-19.541 8.749-19.541 19.541 0 0.008 0 0.015 0 0.023v-0.001 541.675c0-1.877 8.747 19.563 19.541 19.563h292.779c10.795 0 19.563-21.44 19.563-19.563v-541.675c0-10.804-8.759-19.563-19.563-19.563v0h-292.779zM411.52 736.235h-253.653v-105.323h253.653v105.323zM411.52 591.765h-253.653v-98.752h253.653v98.752zM411.52 453.888h-253.653v-87.211h253.653v87.211zM411.52 327.552h-253.653v-102.699h253.653v102.699zM523.52 465.344c-21.163 0-29.931 8.725-29.931 19.541v0.043c0 10.816 8.768 19.563 29.931 19.563 0.448 0 9.195-8.747 9.195-19.563 0-10.795-8.747-19.584-9.195-19.584zM942.507 659.2v-76.587c0-42.368-25.6-87.744-99.584-89.237v-75.627c86.549-9.771 154.005-83.435 154.005-172.651-0.061-88.985-66.945-162.33-153.183-172.571l-0.822-0.080v-15.467c-0.036-63.139-51.175-114.323-114.293-114.432h-349.216c-63.129 0.109-114.268 51.293-114.304 114.429v55.384h-174.827c-29.607 0.049-53.589 24.061-53.589 53.675 0 0 0 0 0 0v0 637.845c0.012 29.609 23.987 53.614 53.584 53.675h36.955v23.808c0 23.168 28.181 62.933 62.848 62.933h189.163c34.667 0 62.869-39.765 62.869-62.933v-23.808h36.971c29.616-0.049 53.608-24.056 53.632-53.672v-231.106c0-10.816-8.747-32.619-9.195-32.619-21.163 0-29.931 21.803-29.931 32.619v231.104c-0.095 7.97-6.519 14.409-14.474 14.528h-388.832c-7.967-0.119-14.391-6.558-14.485-14.519v-637.854c0-7.893 6.635-14.549 14.485-14.549h388.821c7.969 0.131 14.391 6.575 14.485 14.54v231.070c0 10.816 8.768 19.541 29.931 19.541 0.448 0 9.195-8.725 9.195-19.541v-231.061c-0.024-29.611-24.004-53.614-53.605-53.675h-174.875v-55.381c0.012-41.545 33.645-75.231 75.169-75.328h349.214c60.288 0 75.2 33.813 75.2 75.328v15.467c-87.042 10.332-153.904 83.677-153.941 172.647v0.004c0.037 88.973 66.899 162.318 153.118 172.571l0.823 0.080v75.627c-37.099 1.493-97.259 46.869-97.259 89.237v76.587c-19.925-17.92-34.197 14.507-34.197 32.107v70.72c0 23.083 14.4 37.461 36.544 37.461h25.856v125.248c0 10.804 8.759 19.563 19.563 19.563s19.563-8.759 19.563-19.563v-125.248h98.987v125.248c-0.007 0.193-0.011 0.419-0.011 0.646 0 10.804 8.759 19.563 19.563 19.563s19.563-8.759 19.563-19.563c0-0.227-0.004-0.453-0.012-0.679l0.001 0.033v-125.248h30.357c19.797 0 32.064-14.379 32.064-37.461v-70.72c0-17.643-3.733-50.453-31.893-32.107zM166.336 857.557h236.672v23.808c0-0.512-10.667 23.808-23.765 23.808h-189.163c-13.077 0-23.744-24.32-23.744-23.808v-23.808zM688.981 245.099c0-74.219 60.288-134.635 134.4-134.635 87.765 0 134.443 60.416 134.443 134.635 0 68.501-46.677 134.635-134.443 134.635-74.112 0-134.4-66.133-134.4-134.635zM743.36 582.613c0-21.739 28.373-58.24 63.232-58.24h33.557c38.144 0 63.232 36.501 63.232 58.24v76.587h-160.021v-76.587zM935.275 760.363h-223.808v-62.016h223.808v62.016zM839.957 343.403c9.664-4.843 15.509-16.555 8.789-26.24l-26.091-52.48h33.003c10.771-0.181 19.434-8.955 19.434-19.752 0-3.087-0.708-6.008-1.97-8.611l0.051 0.118-30.293-80.811c-13.205-12.48-20.139-10.88-27.328-10.88 14.741 0-5.888 0.64-8.683 2.027-6.485 3.282-10.854 9.896-10.854 17.531 0 3.173 0.755 6.17 2.095 8.822l-0.051-0.112 26.069 52.544h-16.875c-30.379 0-40.021 15.509-33.685 28.267l40.171 80.747c3.273 6.494 9.888 10.87 17.525 10.87 3.167 0 6.159-0.753 8.805-2.089l-0.112 0.051z" />
<glyph unicode="&#xe90c;" glyph-name="13" d="M36.112 473.036h157.445c10.867 0 19.665-8.819 19.665-19.686v-19.665h98.388c10.888 0 19.686-8.798 19.686-19.686v-32.455h20.961l26.122 51.973c32.147 47.823 86.047 78.869 147.198 78.869 0.061 0 0.123 0 0.184 0h53.489v23.845c-72.14 36.843-105.284 111.073-105.284 180.935 0 97.51 38.181 175.292 117.070 209.836 2.315 1.033 5.016 1.634 7.858 1.634 10.863 0 19.673-8.79 19.707-19.645v-160.499h118.073v160.496c0.046 10.86 8.861 19.647 19.728 19.647 2.842 0 5.543-0.601 7.984-1.682l-0.126 0.050c78.869-34.544 129.839-112.327 129.839-209.836 0-69.862-45.913-144.091-118.053-180.935v-63.195h129.86c43.405 0 78.723-35.297 78.723-91.491 0-3.406-4.911-18.474-13.333-31.013 30.657-10.742 52.684-54.46 52.684-74.25-0.025-34.128-21.757-63.173-52.134-74.078l-0.549-0.172c8.422-12.56 13.333-27.606 13.333-43.802 0-48.776-10.574-63.509-52.705-74.271 8.422-12.518 13.354-27.585 13.354-46.602 0-57.887-35.318-75.88-78.723-75.88h-359.842c-0.146 0-0.318-0.001-0.491-0.001-48.75 0-92.871 19.82-124.744 51.842l-0.007 0.007-41.253 32.601h-8.923c0 3.051-8.798-8.568-19.686-8.568h-98.388v-16.865c0-0.006 0-0.014 0-0.021 0-10.849-8.795-19.644-19.644-19.644-0.007 0-0.015 0-0.022 0h-157.444c-0.006 0-0.014 0-0.021 0-10.849 0-19.644 8.795-19.644 19.644 0 0.007 0 0.015 0 0.022v-0.001 432.859c0 10.867 8.798 19.686 19.665 19.686zM579.25 870.766c-43.217-23.803-71.784-70.405-67.25-122.274h67.25v122.274zM776.046 870.766v-122.274h77.573c-5.81 51.869-34.356 98.471-77.573 122.274zM853.64 702.955h-343.73c-1.296-56.027 38.431-110.655 103.863-136.276 0.209-3.135 4.827-10.177 4.827-18.014v-36.279h59.037c22.131 0 42.59-7.356 59.037-19.728v56.007c0 0.003 0 0.006 0 0.010 0 8.007 4.79 14.895 11.661 17.954l0.125 0.050c58.472 25.621 98.22 80.248 105.179 136.276zM905.906 433.685h-129.86v-78.702h129.86c21.713 0 39.372 17.638 39.372 26.561 0 28.839-17.659 52.14-39.372 52.14zM984.628 276.281c-0.036 21.719-17.632 39.315-39.347 39.351h-169.235v-78.702h169.232c21.723 0.024 39.327 17.628 39.351 39.349v0.002zM945.277 158.229c-0.036 21.726-17.644 39.327-39.369 39.351h-129.862c-21.525 0-39.372-17.366-39.372-39.351 0-21.713 35.715-39.351 39.372-39.351h129.86c21.732 0.012 39.348 17.62 39.372 39.349v0.002zM736.674 0.825h129.881c21.713 0 39.351 7.481 39.351 36.53 0 24.534-17.638 42.172-39.351 42.172h-129.881c-21.692 0-39.351-17.638-39.351-42.172 0-29.048 17.659-36.53 39.351-36.53zM618.6 0.825h49.946c-6.708 11.577-10.574 25.015-10.574 36.53 0 37.094 22.047 66.309 65.097 77.072-20.835 12.539-25.746 27.606-25.746 43.802 0 17.199 5.538 33.332 33.061 46.519-54.606 12.372-84.47 39.79-100.039 74.94-3.574-5.642-7.502-26.875-11.745-16.3v-262.562zM331.295 99.192h11.807c5.224 0 10.219-2.069 29.717-5.768l36.488-52.266c24.785-24.915 59.094-40.334 97.005-40.334 0.141 0 0.281 0 0.422 0.001h72.515v216.461c-28.839-9.112-63.028-19.707-96.507-19.707-12.748 0-8.777-2.863-8.777 19.665 0 6.729-3.971 19.686 8.777 19.686 37.637 0 75.274 16.99 101.418 46.644 25.224 25.14 34.44 57.469 34.44 89.192 0 12.748 13.145 8.777 19.686 8.777 22.716 0 19.686 3.971 19.686-8.777v-37.449c0-47.522 33.855-100.059 78.702-96.423v175.104c-0.036 32.591-26.446 59.001-59.033 59.037h-151.89c-0.043 0-0.094 0-0.145 0-47.553 0-89.47-24.135-114.168-60.823l-0.312-0.491-31.974-47.982c-3.572-5.31-9.559-8.756-16.351-8.756-0.004 0-0.009 0-0.013 0h-31.493v-255.791zM213.222 79.527h78.723v302.017h-78.723v-302.017zM55.798 37.355h118.073v396.33h-118.073v-396.33z" />
<glyph unicode="&#xe90d;" glyph-name="14" d="M983.893 309.568v-51.243c0-48.043-40.064-87.467-84.267-90.261v-117.376c0-60.779-52.8-110.251-113.707-110.251h-322.091c-58.752 0-103.061 47.403-103.061 110.251v41.045h-257.664c-34.283 0-62.144 41.28-62.144 75.477 0.089 33.849 27.209 61.335 60.907 62.015l0.064 0.001v291.627c-11.115-13.547-25.067-14.421-39.829-14.421h-0.021c-0.069 0-0.151 0-0.233 0-17.084 0-32.545 6.949-43.711 18.174l-0.003 0.003c-11.202 11.145-18.134 26.572-18.134 43.618 0 0.086 0 0.171 0.001 0.256v-0.013c0 16.597 6.443 32.149 18.176 43.861l318.336 317.824c11.265 11.225 26.806 18.165 43.968 18.165s32.703-6.94 43.97-18.167l-0.002 0.002 141.547-145.728v80.491c0.061 27.029 21.986 48.917 49.024 48.917 0 0 0 0 0 0h45.611c27.024-0.012 48.933-21.898 48.981-48.913v-219.461l12.672-12.651c11.733-11.691 18.197-27.264 18.197-43.883 0-16.597-6.464-32.171-18.197-43.883-6.123-17.045-41.707-22.059-63.232-15.061v-300.757c33.762-0.681 60.881-28.167 60.971-62.007v-0.009c0-34.197-27.883-75.477-62.144-75.477h-257.664v-41.024c0-35.221 21.845-70.891 63.616-70.891h322.091c39.164 0.024 70.912 31.736 70.997 70.883v117.384c-47.601 2.916-85.116 42.179-85.227 90.229v51.254c-15.296 1.579-27.285 14.549-27.285 16.619v72.747c0 22.507 13.675 36.16 30.464 36.16h22.912v103.851c0 10.893 8.83 19.723 19.723 19.723s19.723-8.83 19.723-19.723v0-103.851h78.784v103.851c0 10.887 8.825 19.712 19.712 19.712s19.712-8.825 19.712-19.712v0-103.851h22.976c16.789 0 30.443-13.653 30.464-36.16v-72.96c0-1.856-11.968-14.827-24.981-16.405zM670.187 864.917c0 5.184-4.373-9.451-9.557-9.451h-45.611c-5.184 0-9.579 14.635-9.579 9.451v-115.435l64.747-64.64v180.075zM671.147 572.907c0.021-8.853 14.421-8.853 23.253 0 4.288 4.267 6.635 9.963 6.635 16.021 0 6.080-2.347 11.776-6.635 16.043l-297.856 297.365c-4.087 4.099-9.739 6.635-15.984 6.635-0.028 0-0.056 0-0.085 0h0.004c-5.803 0-11.627-2.197-0.32-6.635l-334.101-317.824c-4.288-4.288-6.635-23.232-6.635-16.043 0-6.101 2.347-11.797 6.613-16.043 4.288-4.288 9.963-6.635 16.043-6.635 6.101 0 11.797 2.347 16.021 6.613l288.448 287.936c3.572 3.553 8.494 5.752 13.929 5.76h0.002c20.587 0 10.24-2.091 13.952-5.76l276.715-267.435zM657.877 144.533c12.523 0 22.72 10.176 22.72 22.677s-10.197 3.669-22.72 3.669h-188.864c-10.88 0-8 27.819-8 38.677 0 10.88-2.88 19.691 8 19.691h159.040v330.603l-247.573 238.741-239.125-238.741v-330.603h150.592c10.88 0 19.733-8.811 19.733-19.691 0-10.859-8.853-38.677-19.733-38.677h-188.843c-12.523 0-22.72 8.832-22.72-3.669s10.197-22.677 22.72-22.677h554.773zM815.36 258.325c0-28.16 37.333-51.072 46.912-51.072h28.736c45.099 0 51.157 22.912 51.157 51.072v51.051h-126.805v-51.051zM969.429 395.712h-185.579v-46.955h185.579v46.955zM380.48 229.248c10.901 0 19.776-8.811 19.776-19.691 0-10.859-8.768-38.677-19.669-38.677h-0.107c-10.88 0-19.712 27.819-19.712 38.677 0 10.88 8.832 19.691 19.712 19.691zM196.843 464.853c0 101.077 99.264 183.339 183.637 183.339 101.269 0 183.659-82.261 183.659-183.339 0-101.099-82.389-183.339-183.659-183.339-84.373 0-183.637 82.219-183.637 183.339zM524.693 464.853c0 79.36-64.683 143.957-144.213 143.957-79.509 0-129.813-64.597-129.813-143.957 0-79.381 50.304-143.979 129.813-143.979 79.531 0 144.213 64.597 144.213 143.979zM369.707 350.507c-16.064 15.787-20.053 27.584-15.211 37.355l28.544 57.28h-36.885c-14.379 0-5.675 15.637-17.685 28.48l42.752 85.76c3.318 6.519 9.978 10.907 17.662 10.907 3.195 0 6.213-0.758 8.883-2.105l-0.113 0.052c28.373-4.843 13.717-16.661 19.627-26.411l-39.317-57.301h36.907c30.144 0 23.339-14.229 18.304-26.901-0.224-0.618-0.446-1.124-0.698-1.614l0.036 0.078-42.688-85.781c-3.313-6.515-9.968-10.901-17.647-10.901-0.014 0-0.027 0-0.041 0h0.002c-2.944 0-5.931 0.661-2.432-8.896z" />
<glyph unicode="&#xe90e;" glyph-name="15" d="M910.863 956.255h-801.587c-60.358-0.033-109.275-48.971-109.275-109.334 0-0.010 0-0.021 0-0.031v0.002-291.606c0-0.009 0-0.019 0-0.029 0-60.357 48.921-109.288 109.274-109.305h7.667c-4.447-11.18-7.026-24.136-7.026-37.693 0-19.71 5.45-38.146 14.925-53.885l-0.263 0.472c20.283-33.008 56.193-54.688 97.167-54.688 0.431 0 0.861 0.002 1.291 0.007l-0.066-0.001h574.23c0.364-0.004 0.794-0.007 1.225-0.007 40.974 0 76.884 21.68 96.885 54.195l0.282 0.493c16.501 27.502 19.456 61.118 8.016 91.107h7.256c60.383 0 109.334 48.95 109.334 109.334v0 291.606c0 60.389-48.947 109.347-109.332 109.363h-0.002zM765.133 498.322h-510.098v93.418h510.098v-93.418zM834.004 425.179c5.998-10.123 5.998-37.449 0-32.797-7.812-12.493-21.709-40.931-36.454-35.372h-574.581c-14.716-5.559-28.613 22.879-36.425 35.372-6.027-4.652-6.027 22.674 0 32.797l10.913 20.773h625.605l10.942-20.773zM947.317 555.286c0-20.1-16.325-56.964-36.454-56.964h-72.85v96.724c0 38.415-31.159 44.588-69.603 44.588h-516.652c-38.444 0-69.603-6.173-69.603-44.588v-96.724h-72.88c-7.461 0-36.425 36.864-36.425 56.964v291.606c0 20.129 28.965 36.425 36.425 36.425h801.587c20.129 0 36.454-16.296 36.454-36.425v-291.606zM536.313 159.466c-3.833-9.83-10.181-11.293-10.181-17.145 0-5.822 0-7.636 10.181-17.115 18.817-16.637 30.621-40.834 30.621-67.789s-11.804-51.152-30.525-67.705l-0.096-0.083c-3.833-9.86-10.181-11.323-10.181-17.145 0-20.129-16.325-36.425-36.454-36.425-7.227 0-36.425 16.296-36.425 36.425 0.029 25.922 11.176 44.559 30.603 67.789 9.479-16.208 10.181-1.872 10.181 17.496 0 6.203 0 7.636-10.181 17.145-18.806 16.636-30.603 40.827-30.603 67.773 0 0.006 0 0.011 0 0.017v-0.001c0 13.019 11.147 50.644 30.603 67.789 9.479 9.86 10.181 11.323 10.181 8.719 0 28.526 16.325 44.88 36.454 44.88s36.425-16.355 36.425-44.88c0.059-17.671-11.088-42.481-30.603-59.743zM754.922 159.466c-9.099-9.83-10.181-11.293-10.181-17.145 0-5.822 0-7.636 10.181-17.115 18.817-16.637 30.621-40.834 30.621-67.789s-11.804-51.152-30.525-67.705l-0.096-0.083c-9.099-9.86-10.181-11.323-10.181-17.145 0-20.125-16.315-36.44-36.44-36.44s-36.44 16.315-36.44 36.44v0c0.059 25.922 11.176 44.559 33.236 67.789 6.846-16.208 7.578-1.872 7.578 17.496 0 6.203 0 7.636-7.578 17.145-20.291 15.605-33.238 39.891-33.238 67.201 0 0.207 0.001 0.413 0.002 0.619v-0.032c0 13.019 11.147 50.644 33.236 67.789 6.846 9.86 7.578 11.323 7.578 8.719 0 28.526 16.296 44.88 36.425 44.88s36.425-16.355 36.425-44.88c0.059-17.671-11.088-42.481-30.603-59.743zM317.703 159.466c-9.099-9.83-10.211-11.293-10.211-17.145 0-5.822 0-7.636 10.211-17.115 18.817-16.637 30.621-40.834 30.621-67.789s-11.804-51.152-30.525-67.705l-0.096-0.083c-9.099-9.86-10.211-11.323-10.211-17.145 0-20.129-16.296-36.425-36.425-36.425s-31.159 16.296-31.159 36.425c0.293 25.922 5.91 44.559 42.715 67.789-7.929-16.208-7.197-1.872-7.197 17.496 0 6.203 0 7.636 7.197 17.145-36.835 17.145-42.715 41.838-42.715 67.789 0 13.019 5.881 50.644 42.715 67.789-7.929 9.86-7.197 11.323-7.197 8.719 0 28.526 16.325 44.88 36.454 44.88s36.425-16.355 36.425-44.88c0.059-17.671-11.088-42.481-30.603-59.743z" />
<glyph unicode="&#xe90f;" glyph-name="16" d="M243.624 662.747h661.328c57.637-0.293 104.36-42.54 104.389-100.176-0.083-57.631-46.763-104.332-104.378-104.448h-661.339c-19.198-0.050-34.75-15.591-34.816-34.78v-0.006c0.132-19.175 15.641-34.684 34.803-34.816h661.341c57.65-0.033 104.373-46.767 104.389-104.417v-0.002c-0.088-76.595-46.782-104.331-104.389-104.419h-191.459c-19.196-0.066-34.737-15.618-34.787-34.811v-104.424h-69.632v104.419c0.050 57.649 46.77 104.369 104.414 104.419h191.464c19.196 0.066 34.737 15.618 34.787 34.811v0.005c-0.148 19.152-15.634 34.639-34.773 34.787h-661.342c-57.652 0.067-104.369 46.793-104.419 104.443v0.005c0.116 57.622 46.797 104.302 104.407 104.419h661.339c19.196 0.066 34.737 15.618 34.787 34.811v0.005c-0.164 19.146-15.641 34.623-34.771 34.787h-661.344c-57.649 0.050-104.369 46.77-104.419 104.414v0.005c0.083 57.635 46.783 104.336 104.411 104.419h661.336c19.193 0.029 34.728 15.594 34.787 17.174-0.146 36.776-15.653 52.312-34.787 52.429h-800.563c-19.193-0.059-34.728-15.623-34.787-52.429v-539.268c0.050-19.198 15.591-34.75 34.78-34.816h208.843c57.662-0.017 104.402-46.756 104.419-104.417v-104.421h-69.603v104.419c-0.050 19.208-15.608 34.766-34.811 34.816h-208.842c-57.637 0.029-101.464 27.824-104.389 104.419v539.268c2.926 49.737 46.753 122.002 104.389 122.032h800.563c57.637 0 104.389-72.294 104.389-122.032 0-50.030-46.753-86.777-104.389-86.777h-661.328c-19.202-0.066-34.75-15.614-34.816-34.81v-0.006c0.146-19.193 15.653-37.566 34.816-39.029zM330.635 16.457h104.419c19.222 0 50.615-8.982 50.615-28.204v-17.408c0-19.222-31.393-34.787-50.615-34.787h-104.419c-19.212 0-34.787 15.575-34.787 34.787v0 17.408c0 19.222 15.565 28.204 34.787 28.204zM591.696 16.457h104.389c19.251 0 34.816-8.982 34.816-28.204v-17.408c0-19.222-15.565-34.787-34.816-34.787h-104.389c-19.222 0-25.863 15.565-25.863 34.787v17.408c0 19.222 6.641 28.204 25.863 28.204z" />
<glyph unicode="&#xe910;" glyph-name="17" d="M708.992 84.506c0 82.739-48.589 154.317-105.344 187.725v138.854h296.448l-200.166 538.419h-397.389l-200.141-538.419h72.371v-178.15h59.366v178.15h178.048v-138.854c-70.715-34.195-118.639-105.355-118.707-187.715v-89.097h-178.074v-59.392h771.661v59.392h-178.074v89.088zM343.782 890.112h314.906l156.006-419.661h-626.893l155.981 419.661zM471.552 411.085h59.366v-120.909c-9.702 1.408-19.61-16.512-29.67-16.512-10.086 0-19.994 17.92-29.696 16.512v120.909zM501.248 232.934c71.654 0 131.61-51.072 145.408-127.974h-290.842c13.798 76.902 73.754 127.974 145.434 127.974zM352.845 54.784h296.781v-59.366h-296.781v59.366z" />
<glyph unicode="&#xe911;" glyph-name="18" d="M1005.804 372.985c-15.019 2.547-21.189 3.571-42.929-11.395l-80.949 28.646 7.037 30.405c23.001 34.448 9.321 73.57-30.51 114.084l-590.323 341.307c-11.926 6.992-26.261 11.125-41.562 11.133h-0.002c-30.752-0.027-57.622-16.617-72.175-41.329l-0.214-0.392-129.89-225.306c-11.422-39.883-9.295-91.083 51.331-114.11l258.573-161.529v-195.033h-130.416c-14.52 88.090-74.621 138.896-146.327 138.896-17.408 0-31.534-14.152-31.534-31.586v-236.675c0-17.434 14.126-31.56 31.534-31.56 71.706 0 131.781 35.682 146.327 118.364h161.95c17.401 0 31.508 14.106 31.508 31.508 0 0.009 0 0.018 0 0.028v-0.001 169.616l247.887-143.307c24.681-7.299 26.992-11.159 41.564-11.159 30.753 0.021 57.626 16.613 72.175 41.329l0.213 0.392 21.005 7.352 65.142-47.393c9.951-13.391 2.127-28.042 14.704-35.315 4.517-2.644 9.947-4.206 15.741-4.206 11.611 0 21.758 6.271 27.239 15.61l0.081 0.149 11.579 20.112v0.026l102.768 178.202c27.149 15.124 3.545 34.422-11.527 43.139zM88.957 57.593v161.687c32.545-13.035 55.117-44.3 55.138-80.841v-0.003c-0.045-36.536-22.608-67.791-54.553-80.636l-0.585-0.208zM686.684 216.707c0.446 0-6.958 0.893-10.056 2.704l-590.297 341.255c-9.584 5.54-12.997 18.327 0.315 27.911l122.119 225.306c24.655 6.275 10.45 10.161 17.802 10.161 3.571 0 6.958-0.893 12.892-2.704l587.461-341.255c6.095-3.68 10.107-10.268 10.107-17.793 0-3.706-0.973-7.184-2.677-10.194l0.054 0.103-129.917-225.333c-3.636-6.122-10.214-10.161-17.736-10.161-0.023 0-0.046 0-0.070 0h0.004zM850.419 332.734l80.922-25.784-55.611-96.44-80.922 46.789 55.611 75.435zM400.2 623.367c-1.365-10.109-16.437-15.78-27.333-15.78-5.33 0-10.765 1.365-15.728 4.254l-73.833 53.458c-33.766 8.717-38.912 28.042-30.221 43.113 8.717-3.098 27.989 20.27 43.061 11.553l92.501-53.484c15.097-8.717 20.244-28.016 11.553-43.113z" />
<glyph unicode="&#xe912;" glyph-name="19" d="M893.731 53.373h-29.751c4.207-65.508-46.44-117.345-126.699-117.345-66.809 0-121.69 51.837-111.256 117.345h-414.028v-88.009c0-16.218-29.585-29.336-29.336-29.336-32.657 0-45.776 13.118-45.776 29.336v88.009h-29.336c-59.309 0-107.548 44.53-107.548 107.575v469.352c0 59.309 48.239 101.099 107.548 101.099h9.77v35.812c0.063 48.575 39.432 87.934 88.004 87.981h312.906c48.577-0.047 87.946-39.406 88.009-87.975v-35.818h101.708v147.262h-29.336c-16.202 0-29.336 13.134-29.336 29.336s13.134 29.336 29.336 29.336v0h234.69c16.19 0 44.281-13.118 44.281-29.309 0-16.218-28.091-29.364-44.281-29.364h-29.336v-147.262h9.77c59.309 0 107.575-41.79 107.575-101.099v-469.352c0-63.045-48.266-107.575-107.575-107.575zM737.28-5.3c48.709 0 68.442 30.692 68.442 68.47 0 27.261-19.733 68.414-68.442 68.414-37.75 0-68.442-41.154-68.442-68.414 0.031-37.792 30.652-68.422 68.437-68.47h0.005zM58.645 307.601h466.999l-78.211 78.239h-388.788v-78.239zM547.563 767.211c-0.016 16.19-13.144 29.309-29.336 29.309 0 0 0 0 0 0h-312.901c-16.163 0-29.336-13.146-29.336-29.309v-35.812h371.574v35.812zM825.289 878.661h-58.672v-147.262h58.672v147.262zM957.578 630.3c0 26.956-36.892 48.903-63.848 48.903h-786.183c-26.989-0.047-48.856-21.914-48.903-48.898v-185.792h400.938c7.777 0 15.222-3.1 20.729-8.607l128.304-128.304h348.963v322.698zM957.578 248.957h-898.934v-88.009c0-26.984 21.947-48.903 48.903-48.903h512.387c42.621 45.886 64.567 78.239 117.345 78.239 52.538-0.066 97.614-31.946 117.002-77.408l0.315-0.832h39.133c26.956 0 63.848 21.919 63.848 48.903v88.009zM756.847 620.502c70.162-0.079 127.020-56.927 127.114-127.078v-0.009c-0.094-70.171-56.946-127.032-127.104-127.142h-0.010c-70.181 0.094-127.048 56.961-127.142 127.133v0.009c0.094 70.169 56.968 127.024 127.136 127.087h0.006zM756.847 424.946c37.784 0.063 68.395 30.684 68.442 68.465v0.005c0 27.233-16.024 45.084-39.133 61.8v-42.261c0.009-0.268 0.014-0.584 0.014-0.901 0-16.202-13.134-29.336-29.336-29.336s-29.336 13.134-29.336 29.336c0 0.317 0.005 0.632 0.015 0.947l-0.001-0.046v42.261c-23.109-16.716-39.133-34.567-39.133-61.8 0.047-37.796 30.674-68.422 68.465-68.47h0.004zM381.343 503.185c-16.218 0-29.336 5.148-29.336 29.309v58.7c0 16.218 13.118 29.309 29.336 29.309s29.336-13.091 29.336-29.309v-58.7c0-24.161-13.118-29.309-29.336-29.309zM263.998 503.185c-16.19 0-29.336 5.148-29.336 29.309v58.7c0 16.202 13.134 29.336 29.336 29.336s29.336-13.134 29.336-29.336v0-58.7c0-24.161-13.118-29.309-29.336-29.309zM146.653 503.185c-16.19 0-29.336 5.148-29.336 29.309v58.7c0 16.202 13.134 29.336 29.336 29.336s29.336-13.134 29.336-29.336v0-58.7c0-24.161-13.118-29.309-29.336-29.309z" />
<glyph unicode="&#xe913;" glyph-name="20" d="M853.228 437.97v-385.707c0-16.148-13.128-29.276-29.302-29.276h-187.471v-33.188c0-16.174-30.589-44.872-46.789-44.872-16.174 0-29.276 28.698-29.276 44.872v33.188h-58.552v-33.188c0-16.174-13.102-44.872-29.302-44.872-16.174 0-29.276 28.698-29.276 44.872v33.188h-58.552v-33.188c0-16.174-13.102-44.872-20.533-44.872-24.917 0-38.046 28.698-38.046 44.872v33.188h-204.958c-16.174 0-29.276 13.128-29.276 29.276v878.487c0 16.148 13.102 29.25 29.276 29.25h702.753c16.174 0 29.302-13.102 29.302-29.25v-327.129c34.081-20.139 58.552-44.662 58.552-82.839-0.038-38.002-24.169-70.358-57.94-82.619l-0.612-0.194zM823.926 550.085c-16.169 0-29.276 13.107-29.276 29.276v0 322.114h-644.201v-819.935h644.201v380.692c0 16.174 13.102 29.276 29.276 29.276 16.148 0 29.302 13.128 29.302 29.276s-13.154 29.302-29.302 29.302zM706.796 140.117c-16.169 0-29.276 13.107-29.276 29.276s13.107 29.276 29.276 29.276v0c24.707 0 29.302-13.102 29.302-29.276 0-16.148-4.595-29.276-29.302-29.276zM706.796 784.345c-16.169 0-29.276 13.107-29.276 29.276s13.107 29.276 29.276 29.276v0c24.707 0 29.302-13.102 29.302-29.276s-4.595-29.276-29.302-29.276zM648.245 491.507h-351.39c-24.103 0-37.862 27.595-23.421 33.162l175.682 247.966c23.762 15.596 35.157 15.596 46.868 0l194.823-247.966c-4.674-5.593-18.485-33.162-42.562-33.162zM472.537 706.258l-108.36-156.173h225.49l-117.13 156.173zM296.855 415.442h351.39c16.174 0 29.276 4.385 29.276-11.789s-13.102-29.276-29.276-29.276h-351.39c-16.169 0-29.276 13.107-29.276 29.276v0c0 16.174 13.102 11.789 29.276 11.789zM238.303 784.345c-0.008 0-0.017 0-0.026 0-16.169 0-29.276 13.107-29.276 29.276 0 16.159 13.092 29.261 29.248 29.276h0.001c0.008 0 0.017 0 0.026 0 16.169 0 29.276-13.107 29.276-29.276 0-16.159-13.092-29.261-29.248-29.276h-0.001zM238.303 198.669c16.169 0 29.276-13.107 29.276-29.276s-13.107-29.276-29.276-29.276v0c-16.169 0-29.276 13.107-29.276 29.276s13.107 29.276 29.276 29.276v0zM296.855 315.799h351.39c16.174 0 29.276-21.136 29.276-29.276 0-16.174-13.102-29.276-29.276-29.276h-351.39c-16.169 0-29.276 13.107-29.276 29.276v0c0 8.139 13.102 29.276 29.276 29.276z" />
<glyph unicode="&#xe914;" glyph-name="21" d="M927.021 124.958c-43.61-13.533-100.573-20.982-161.049-20.982-110.010 0-227.85 24.897-237.869 79.189-41.803 0.381-88.988 5.1-120.31-0.201-47.626-19.998-99.89-38.611-153.901-38.611-129.646 0-235.118 105.251-235.118 234.616 0 14.697 9.336 29.395 4.136 43.691 24.355 127.398 147.496 211.105 274.974 186.609l-2.148 86.297c-0.381 5.22-0.602 7.389-0.602 9.537 0 35.077 42.647 55.457 78.185 66.44 43.209 13.332 100.372 20.56 160.868 20.56 60.697 0 118.443-7.228 162.635-20.56 45.578-26.182 71.901-32.125 78.366-54.874 2.751-3.313 4.116-7.429 4.116-11.766v-209.117c55.015-1.205 117.599-8.433 154.744-20.4 39.916-14.898 66.239-35.278 69.773-60.737 8.935-2.349 12.75-5.1 12.75-7.65v-215.421c0-38.33-53.81-63.428-89.55-66.62zM526.717 222.158l-0.984 66.46v3.514c-18.071 0.201-35.74 1.165-52.445 2.55-9.722-24.703-22.436-46.018-38.025-64.868l0.318 0.396c30.258-4.899 60.697-7.67 91.136-8.051zM484.292 333.292c13.151-0.964 26.724-1.546 40.659-1.767l14.356 68.026c0 0.381-1.807 0.984-1.807 1.365-26.102 0.181-38.089 0.582-49.654 1.365 0.763-7.831 1.165-15.48 0.984-23.13 0-15.28-1.586-30.74-4.538-45.859zM312.039 565.74c-17.393 5.467-37.396 8.629-58.134 8.654h-0.013c-48.71 0-95.654-18.231-117.158-50.979-94.569-72.503-100.272-196.186-27.588-275.938 82.603-79.812 196.608-85.695 276.56-12.951 39.502 35.776 64.211 87.258 64.211 144.511 0 0.040 0 0.081 0 0.121v-0.006c0 13.151-1.365 26.483-3.915 39.394-15.298 70.135-66.292 125.521-132.567 146.808l-1.396 0.387zM685.618 734.118c-40.056 12.147-95.071 19.014-151.231 19.014-56.581 0-109.608-6.867-149.283-19.014-41.442-12.75-50.477-26.062-50.678-28.813 0.201 0 0.201-0.201 0.201-0.602 0.984-4.297 12.77-17.83 54.995-29.977 39.093-11.364 90.554-33.37 144.765-33.37 56.159 0 111.174 22.789 151.050 34.736 42.807 12.75 52.043 26.283 52.043 29.013 0 2.751-9.236 16.083-51.863 29.013zM740.031 656.113c-13.754-7.268-28.27-13.151-43.41-17.247-48.561-15.106-104.415-23.936-162.29-24.214l-0.144-0.001c-57.946 0-113.122 10.28-155.768 9.437-14.717 17.107-28.873 22.628-42.426 29.455l1.385-57.966c22.187-5.722 42.807-19.275 61.48-31.985 0.582-0.201 0.984-0.201 1.566-0.381 37.707-9.597 85.233-14.697 133.763-14.697 56.179 0 111.375 7.048 151.251 18.994 42.807 12.931 52.043 26.463 52.043 29.013-0.012 0.228-0.018 0.495-0.018 0.763 0 3.218 0.958 6.212 2.605 8.713l-0.037-0.060v50.176zM740.031 547.348c-13.754-7.268-28.090-12.951-43.209-17.649-44.193-30.499-101.938-20.6-162.635-20.6-29.857 0-59.512 1.988-88.988 5.702 15.174-20.826 27.214-45.105 34.772-71.285l0.405-1.64c16.886-1.165 35.157-1.968 54.011-1.968h1.767c32.206 35.479 119.406 53.128 203.876 55.477v51.963zM979.426 408.947c-6.024 3.353-24.516 15.882-65.958 22.99-40.077 17.589-95.071 24.054-151.251 24.054h-2.55c-52.445 0-102.34-5.883-140.629-16.665-40.257-11.364-54.593-24.094-54.031-29.596 3.815-0.964 5.823-2.128 7.831-3.313-5.843-6.084 9.276-18.051 46.803-28.612 38.872-10.802 89.55-16.866 142.577-16.866 56.179 0 109.227 6.445 149.484 18.412 43.61 12.951 65.717 26.463 67.725 29.415v0.181zM983.241 308.595v50.377c-31.282-7.248-45.819-12.931-60.938-17.247-43.791-12.931-100.754-19.998-160.467-19.998-56.561 0-110.973 6.666-153.198 18.432-15.521 4.116-30.439 9.798-29.977 13.071l-14.035-40.9 0.402-34.194c16.103-9.638 89.168-25.781 197.010-25.781 56.963 0 110.371 6.666 150.648 18.813 42.426 12.931 54.894 26.263 54.894 29.013 0 2.931-1.667 5.883-1.667 8.413h17.328zM965.913 250.99c-13.352-7.048-27.287-12.951-37.687-17.247-48.148-13.332-105.492-20.6-166.189-20.6-71.499 0-149.484 10.802-196.227 34.495l0.984-56.641v-0.381c0-2.952 8.453-16.063 50.076-28.833 39.293-11.927 92.321-18.613 149.102-18.613 56.561 0 109.588 6.867 149.464 19.215 41.643-1.707 50.477 26.463 50.477 29.194v59.412zM326.556 285.867v-0.181c2.061 0.798 4.447 1.26 6.94 1.26 8.35 0 15.489-5.185 18.372-12.511l0.046-0.134c0.799-2.057 1.263-4.439 1.263-6.928 0-8.332-5.19-15.453-12.513-18.305l-0.134-0.046c-14.846-5.868-32.044-9.27-50.036-9.27-38.621 0-73.58 15.676-98.863 41.012l-0.003 0.003c-13.151 12.931-23.572 28.632-23.371 45.678h-36.924c-4.839 0-19.637 8.814-19.637 19.597 0 3.373 14.798 19.597 19.637 19.597h20.038c-0.43 3.952-0.675 8.535-0.675 13.175 0 2.952 0.099 5.88 0.294 8.783l-0.021-0.393h-19.637c-4.839 0-19.637-7.268-19.637 19.597 0 8.072 14.798 19.597 19.637 19.597h27.889c6.867 19.195 17.87 36.442 32.407 42.084 39.093 47.686 97.421 60.035 148.902 40.237 7.365-2.916 12.479-9.977 12.479-18.231 0-10.801-8.756-19.557-19.557-19.557-2.546 0-4.979 0.487-7.21 1.372l0.132-0.046c-36.924 14.336-78.768 0.040-106.857-22.548-6.666-7.048-12.368-14.697-2.269-23.13h99.709c10.802 0 19.637-18.733 19.637-19.576 0-25.058-8.835-19.617-19.637-19.617h-126.113c-0.783-7.228-0.582-14.497 0.602-21.564h115.29c10.802 0 19.637-14.597 19.637-19.597-0.034-10.827-8.808-19.594-19.635-19.617h-100.976c3.554-6.626 8.272-12.71 13.955-17.81 18.172-18.234 43.31-29.515 71.082-29.515 12.854 0 25.143 2.417 36.438 6.82l-0.683-0.235z" />
<glyph unicode="&#xe915;" glyph-name="22" d="M919.741-18.621c0-16.115-13.016-29.103-16.734-29.103h-769.132c-16.088 0-29.103 12.989-29.103 29.103 0 144.438 117.517 261.955 261.955 261.955h291.059c144.438 0 261.955-117.517 261.955-261.955zM745.095 97.819v-87.336h114.365c-13.428 89.383-83.188 159.143-171.445 172.432l-1.126 0.139v-56.158h29.103c16.088 0 29.103-13.016 29.103-29.076zM337.624 183.053c-89.383-13.428-159.143-83.188-172.432-171.445l-0.139-1.126h114.338v87.336c0.015 16.062 13.039 29.076 29.103 29.076 0 0 0 0 0 0h29.13v56.158zM337.624 50.526v-40.044h349.265v40.044h-349.265zM628.682 185.101h-232.852v-58.206h232.852v58.206zM279.39 476.187v58.206h-29.103c-16.073 0-29.103 13.030-29.103 29.103v56.185c0.060 40.546 27.067 74.768 64.067 85.72l0.633 0.161c18.361 73.736 69.925 132.579 137.5 160.603l1.548 0.569v49.933c0 13.15 13.016 29.076 29.103 29.076h116.413c16.088 0 29.13-15.926 29.13-29.076v-49.933c69.109-28.603 120.662-87.443 138.681-159.564l0.34-1.608c37.645-11.104 64.664-45.329 64.728-85.874v-56.192c0-16.073-13.030-29.103-29.103-29.103-0.009 0-0.019 0-0.028 0h-29.102v-58.206c0-128.404-104.448-232.852-208.842-232.852-152.387 0-256.862 104.448-256.862 232.852zM745.095 592.627v27.055c0 17.139-13.986 31.151-31.151 31.151-14.498 0-26.759-8.273-28.834 24.98 6.899 54.056-57.856 123.042-122.934 142.417-12.369 3.665 0.755 15.010 0.755 27.917v41.391h-79.791v-41.391c0-12.908-8.461-24.253-20.803-27.917-65.078-19.375-113.368-88.63-122.961-142.417-2.048-33.253 0.701-24.98-28.807-24.98-17.192 0-31.178-14.013-31.178-31.151v-27.055h228.729c3.611 3.584-35.921 30.208-16.465 49.691l29.669 29.615-80.303 40.179c-17.758 8.866-21.585 32.579 13.043 46.592l37.592 58.233c27.271 27.271 68.392-13.959 41.176-41.149l-29.642-29.669 80.303-40.152c9.611-4.886 16.082-14.701 16.082-26.028 0-8.043-3.262-15.323-8.536-20.591v0l-58.206-58.206c-4.080-4.29-9.444-7.324-15.475-8.486l-0.182-0.029h227.921zM337.624 476.187c0-96.31 78.336-174.673 198.629-174.673 72.3 0 150.636 78.363 150.636 174.673v58.206h-349.265v-58.206z" />
<glyph unicode="&#xe916;" glyph-name="23" d="M726.459-45.291c-66.034 0-126.727 25.185-174.357 60.167h-509.232c-16.052 0-29.059 16.744-29.059 32.796v869.487c0 16.024 13.008 29.059 29.059 29.059h624.114c13.561 0 41.514-13.035 41.514-29.059v-408.631c161.626 19.705 296.822-110.149 296.822-274.958 0-152.687-126.146-278.86-278.86-278.86zM635.461 888.126h-563.532v-811.423h448.374c-124.956 149.393-58.23 357.902 115.158 418.401v393.022zM726.459 452.4c-120.638 0-218.832-98.166-218.832-218.832s98.193-220.769 218.832-220.769c120.666 0 218.832 100.103 218.832 220.769s-98.166 218.832-218.832 218.832zM758.701 262.13c76.579-27.039 67.224-128.858-3.155-154.32v-9.078c0-13.008-13.008-41.237-29.032-41.237-16.052 0-29.059 28.229-29.059 41.237v5.784c-13.367 2.352-25.6 7.362-41.043 17.463-13.423 8.801 6.974 26.79-8.413 40.213 5.269 7.965 14.187 13.147 24.316 13.147 5.914 0 11.416-1.767 16.005-4.801l-0.108 0.067c14.142-9.244 18.736-9.991 38.109-9.853 18.681 0.138 26.126 14.779 27.565 15.471 1.328 15.747-0.166 26.070-14.557 31.135-24.106 8.524-48.848 18.321-66.366 22.832-39.881 40.517-27.842 111.976 24.493 130.989v4.207c-0.009 0.267-0.014 0.581-0.014 0.897 0 16.049 13.010 29.059 29.059 29.059s29.059-13.010 29.059-29.059c0-0.315-0.005-0.629-0.015-0.942l0.001 0.046v-1.578c14.336-4.041 25.849-11.375 33.764-19.401 5.161-5.242 8.348-12.44 8.348-20.383 0-8.108-3.321-15.44-8.676-20.711l-0.004-0.004c11.956-11.236-29.834-11.070-35.093 0.332-7.611 1.578-16.55 9.050-35.923 3.183-7.722-2.297-9.797-10.323-10.268-27.925-0.941 10.185 0.415 6.781 1.135 6.227 32.879-8.579 31.357-16.412 49.872-22.998zM494.094 483.397c-16.041 0-29.046 13.004-29.046 29.046s13.004 29.046 29.046 29.046v0h30.969c16.052 0 34.539-13.008 34.539-29.059s-18.487-29.032-34.539-29.032h-30.969zM192.899 607.329c-40.213 0-41.237 13.008-41.237 29.032v131.017c0 39.964 1.024 41.514 41.237 41.514h347.662c16.052 0 29.059-1.55 29.059-41.514v-131.017c-0.016-16.037-13.020-29.032-29.059-29.032 0 0 0 0 0 0h-347.662zM511.502 762.23h-313.704v-96.837h313.704v96.837zM184.237 541.488h30.997c15.659-0.499 28.163-13.312 28.163-29.046s-12.504-28.547-28.117-29.044l-0.046-0.001h-30.997c3.127 0-29.059 12.98-29.059 29.032s32.187 29.059 29.059 29.059zM184.237 386.56h30.997c15.659-0.499 28.163-13.312 28.163-29.046s-12.504-28.547-28.117-29.044l-0.046-0.001h-30.997c3.127 0-29.059 12.98-29.059 29.059 0 16.024 32.187 29.032 29.059 29.032zM184.237 231.632h30.997c15.659-0.499 28.163-13.312 28.163-29.046s-12.504-28.547-28.117-29.044l-0.046-0.001h-30.997c3.127 0-29.059 12.98-29.059 29.059 0 16.024 32.187 29.032 29.059 29.032zM339.165 541.488h30.969c0.267 0.009 0.581 0.014 0.897 0.014 16.049 0 29.059-13.010 29.059-29.059s-13.010-29.059-29.059-29.059c-0.315 0-0.629 0.005-0.942 0.015l0.046-0.001h-30.969c-16.041 0-29.046 13.004-29.046 29.046s13.004 29.046 29.046 29.046v0zM339.165 386.56h30.969c0.267 0.009 0.581 0.014 0.897 0.014 16.049 0 29.059-13.010 29.059-29.059s-13.010-29.059-29.059-29.059c-0.315 0-0.629 0.005-0.942 0.015l0.046-0.001h-30.969c-0.267-0.009-0.581-0.014-0.897-0.014-16.049 0-29.059 13.010-29.059 29.059s13.010 29.059 29.059 29.059c0.315 0 0.629-0.005 0.942-0.015l-0.046 0.001zM339.165 231.632h30.969c0.267 0.009 0.581 0.014 0.897 0.014 16.049 0 29.059-13.010 29.059-29.059s-13.010-29.059-29.059-29.059c-0.315 0-0.629 0.005-0.942 0.015l0.046-0.001h-30.969c-0.267-0.009-0.581-0.014-0.897-0.014-16.049 0-29.059 13.010-29.059 29.059s13.010 29.059 29.059 29.059c0.315 0 0.629-0.005 0.942-0.015l-0.046 0.001z" />
<glyph unicode="&#xe917;" glyph-name="24" d="M896.431-42.011h-768.889c-58.3 0.061-105.545 47.306-105.607 105.601v768.895c0.061 58.306 47.303 105.557 105.6 105.634h768.896c58.304-0.077 105.546-47.328 105.607-105.628v-768.895c-0.061-58.3-47.306-105.545-105.601-105.607h-0.006zM957.709 832.485c0 26.57-34.708 48.182-61.278 48.182h-768.889c-26.598-0.031-48.151-21.584-48.182-48.179v-768.892c0-26.543 21.612-60.766 48.182-60.766h768.889c26.57 0 61.278 34.223 61.278 60.766v768.889zM511.973 81.031c-202.375 0-367.023 164.648-367.023 367.050 0 202.321 164.648 366.969 367.023 366.969 202.402 0 367.023-164.648 367.023-366.969 0-202.402-164.621-367.050-367.023-367.050zM511.973 757.652c-170.712 0-309.598-138.887-309.598-309.571 0-170.739 138.887-309.625 309.598-309.625 170.739 0 309.598 138.887 309.598 309.625 0 170.685-138.86 309.571-309.598 309.571zM604.241 450.129c-0.008 0-0.017 0-0.027 0-15.835 0-28.672 12.837-28.672 28.672 0 0 0 0 0 0v0 123.042c0 15.845 12.854 28.699 28.699 28.699 18.782 0 28.726-12.854 28.726-28.699v-123.042c0-15.845-9.944-28.672-28.726-28.672zM602.22 325.039v-61.494c0-15.872-12.854-28.726-28.726-28.726h-123.015c-15.865 0-28.726 12.861-28.726 28.726v0 61.494c0.061 49.808 40.414 90.17 90.212 90.247h0.007c49.811-0.077 90.17-40.436 90.247-90.239v-0.007zM544.795 325.039c-0.524 17.718-15.012 31.882-32.808 31.882s-32.285-14.164-32.807-31.833l-0.001-0.048v-32.822h65.617v32.822zM419.732 450.129c-0.008 0-0.017 0-0.027 0-15.841 0-28.684 12.834-28.699 28.671v123.043c0 15.857 12.855 28.712 28.712 28.712s28.712-12.855 28.712-28.712v0-123.042c0-15.845-12.854-28.672-28.699-28.672z" />
<glyph unicode="&#xe918;" glyph-name="25" d="M984.405 549.612l-139.973-139.973 20.585-20.585c5.267-5.269 8.524-12.547 8.524-20.585s-3.257-15.316-8.524-20.585l-117.707-117.734c-40.75-62.254-150.791-88.799-236.623-71.654-49.415 9.899-82.708-1.392-123.143-26.782l-81.605-63.462c-14.642-11.449-33.315-18.358-53.602-18.358-24.116 0-45.952 9.764-61.77 25.554l0.001-0.001 12.918 4.805-137.426-135.063c8.245 3.991-29.801 3.991-41.17 0-11.369 26.755-11.369 45.161 0 56.556l119.703 119.703-4.831 4.831c-31.088 31.061-28.961 80.686 4.385 115.344l51.883 81.605c26.151 33.608 36.838 74.857 27.175 123.143-3.314 15.612-5.212 33.55-5.212 51.931 0 72.129 29.222 137.434 76.473 184.72l-0.001-0.001 117.707 102.374c11.369 26.755 29.801 26.755 41.17 0l32.4-5.199 128.158 139.973c34.055 34.055 89.456 34.055 143.596 0 14.047-34.133 14.047-89.403 0-123.51l-160.059-139.973 123.51-123.536 139.973 139.999c54.902 34.133 89.377 34.133 123.484 0 15.814-15.805 25.595-37.644 25.595-61.768s-9.782-45.963-25.595-61.768v0zM178.544 205.916c-3.823-4.886-6.13-11.119-6.13-17.89 0-8.043 3.255-15.326 8.52-20.603l50.805-50.805c5.272-5.262 12.55-8.516 20.588-8.516 6.767 0 12.995 2.306 17.941 6.175l-0.064-0.048 83.207 39.962-118.6 124.062-56.267-72.336zM696.241 837.829c11.343 11.343 11.343 29.801 0 21.084 8.743 31.429-29.827 31.429-41.17 0l-139.973-119.913 41.17-41.17 139.973 139.999zM432.758 739l-97.122-97.122c-36.699-36.767-59.393-87.525-59.393-143.582 0-14.327 1.482-28.307 4.302-41.796l-0.231 1.321c12.183-44.4 6.065-86.489-13.47-141.102l126.057-114.242c42.929 19.456 85.097 18.406 129.208 13.102 66.954-13.391 148.743-8.35 184.031 55.742l97.122 97.149-370.504 370.53zM943.235 631.979c-6.184-1.34-13.288-2.107-20.572-2.107s-14.388 0.767-21.236 2.225l0.664-0.118-134.091-139.999 35.262-41.196 139.973 125.348c11.395 26.020 11.395 44.452 0 55.847zM453.343 389.054c-34.055 34.028-34.055 89.456 0 113.822 34.133 43.822 89.377 43.822 123.51 0 34.055-24.366 34.055-79.793 0-113.822-34.133-44.767-89.377-44.767-123.51 0zM535.683 471.421c-5.272 5.26-12.549 8.513-20.585 8.513s-15.313-3.253-20.586-8.513l0.001 0.001c-11.369-21.583-11.369-29.801 0-41.196 5.269-5.267 12.547-8.524 20.585-8.524s15.316 3.257 20.585 8.524v0c11.369 11.395 11.369 19.614 0 41.196z" />
<glyph unicode="&#xe919;" glyph-name="26" d="M884.992 100.454l-0.666-113.203c-0.102-15.795-3.686-28.518-28.672-28.518h-688.102c-15.835 0-28.672 12.837-28.672 28.672v0 113.101c-69.12 37.094-116.224 110.054-116.224 186.214v308.48c0 126.976 98.611 225.562 219.827 225.562h68.429v30.618c0.073 47.462 38.529 85.918 85.983 85.99h230.151c47.473-0.058 85.943-38.52 86.016-85.983v-30.625h68.429c121.216 0 219.802-98.586 219.802-225.562v-308.48c0-76.186-47.13-149.197-116.301-186.266zM196.224 16.077h630.912l0.41 63.309c-13.784-3.092-29.615-4.864-45.86-4.864-0.068 0-0.137 0-0.205 0h-538.997c-15.872 0-31.334 1.69-46.259 4.89v-63.334zM655.718 851.379c0 15.77-12.851 28.646-28.672 28.646h-230.144c-15.795 0-28.672-12.877-28.672-28.646v-30.618h287.488v30.618zM943.949 595.2c0 95.36-66.637 168.243-162.458 168.243h-539.008c-89.6 0-162.483-72.883-162.483-168.243v-308.48c0-82.458 73.523-154.88 162.483-154.88h539.008c95.821 0 162.458 72.909 162.458 154.88v308.48zM856.346 418.432c-15.846 0-28.672 12.826-28.672 20.352 0 24.141 12.826 36.966 28.672 36.966 31.718 0 28.672-12.826 28.672-36.966 0-7.526 3.046-20.352-28.672-20.352zM528.896 424.755c-4.755-3.613-10.774-5.789-17.301-5.789-5.903 0-11.39 1.779-15.955 4.83l0.104-0.066-114.739 76.211c-7.761 5.21-12.801 13.952-12.801 23.872 0 15.828 12.831 28.66 28.66 28.66 5.909 0 11.4-1.788 15.962-4.853l-0.103 0.065 97.792-64.922 179.661 119.091c-9.498 9.523 8.499 7.040 18.048-5.581 18.048-12.621 7.040-30.618-5.606-40.166l-173.722-131.354zM511.974 648.755c-15.821 0-28.672 12.826-28.672 19.917 0 24.576 12.851 37.427 28.672 37.427 15.846 0 28.672-12.851 28.672-37.427 0-7.091-12.826-19.917-28.672-19.917zM511.974 247.347c15.846 0 28.672-12.826 28.672-28.672 0-15.821-12.826-46.643-28.672-46.643-15.821 0-28.672 30.822-28.672 46.643 0 15.846 12.851 28.672 28.672 28.672zM169.395 418.432c-15.821 0-28.646 12.826-28.646 20.352 0 24.141 12.826 36.966 28.646 36.966 15.846 0 28.672-12.826 28.672-36.966 0-7.526-12.826-20.352-28.672-20.352z" />
<glyph unicode="&#xe91a;" glyph-name="27" d="M829.024 540l-550.048 376.576c-25.408 17.376-51.008 26.624-72.256 26.624-41.152 0-66.592-33.024-66.592-88.256v-813.856c0-55.2 25.408-88.128 66.464-88.128 21.28 0 46.464 9.216 71.936 26.656l550.304 376.512c35.392 24.288 54.976 30.112 54.976 92 0 35.008-19.36 67.648-54.784 91.872z" />
<glyph unicode="&#xe91b;" glyph-name="28" d="M1023.987 435.213h-499.2v-499.2h-25.6v499.2h-499.187v25.6h499.187v499.187h25.6v-499.187h499.2v-25.6z" />
<glyph unicode="&#xe91c;" glyph-name="29" d="M873.984 165.568l-362.048 361.984-361.984-361.984-90.56 90.496 452.544 452.544 493.504-452.544-131.456-90.496z" />
<glyph unicode="&#xe91d;" glyph-name="30" d="M1005.44 640.064l-493.504-493.504-452.544 493.504 90.56 90.496 361.984-362.048 362.048 362.048 131.456-90.496z" />
<glyph unicode="&#xe91e;" glyph-name="31" d="M674.107 104.157h-54.54c-0.052 0-0.112-0.001-0.173-0.001-12 0-21.734 9.701-21.787 21.689v0.005c0 12.004 9.83 12.43 21.961 12.43h54.477c158.279 1.103 299.386 129.308 302.537 282.34-44.192-59.696-114.373-97.974-193.494-97.974-0.192 0-0.384 0-0.576 0.001h0.030c-132.080 0-239.269 105.74-239.269 235.977s107.189 235.961 239.269 235.961c139.059 0 239.080-105.551 239.254-235.646l0.016-0.284v-109.852c0-193.788-155.648-344.474-347.703-344.647zM782.541 751.136c-107.788 0-195.363-86.205-195.363-192.512 0-106.275 87.576-192.48 195.363-192.48s205.856 86.205 205.856 192.48c0 106.307-98.068 192.512-205.856 192.512zM130.82 105.118h-54.54c-1.922-0.063-21.961 9.689-21.961 21.677 0 12.020 20.039 14.005 21.961 14.005h54.477c157.901 7.908 287.586 127.181 302.427 279.694-44.185-59.623-114.313-97.848-193.369-97.848-0.197 0-0.394 0-0.591 0.001h0.030c-132.080 0-239.254 105.756-239.254 235.977 0 130.237 107.173 235.961 239.254 235.961 131.529 0 238.371-104.873 239.238-234.386l0.032-0.614v-109.82c0-190.259-155.664-344.489-347.703-344.647zM239.254 751.136c-107.788 0-195.363-86.205-195.363-192.512 0-106.275 87.576-192.48 195.363-192.48 111.9 0 195.363 86.205 195.363 192.48 0 106.307-83.464 192.512-195.363 192.512z" />
<glyph unicode="&#xe91f;" glyph-name="32" d="M280.883 155.085c20.224-20.48 56.576-34.304 77.517-13.722 20.173 19.866 20.173 82.534 0 102.349l-153.6 153.702h768c29.133 0 51.2 20.736 51.2 38.298 0 39.731-22.067 64.051-51.2 64.051h-768l153.6 153.549c20.173 20.531 20.173 82.637 0 102.4-20.941 20.582-57.344 4.045-77.517-16.486l-264.090-255.642c24.166-19.866 24.166-52.992 0-72.704l264.090-255.795z" />
<glyph unicode="&#xe920;" glyph-name="33" d="M743.066 155.085c-20.224-20.48-56.576-34.304-77.517-13.722-20.224 19.866-20.224 82.534 0 102.349l153.6 153.702h-768c-29.184 0-51.149 20.736-51.149 38.298 0 39.731 21.965 64.051 51.149 64.051h768l-153.6 153.549c-20.224 20.531-20.224 82.637 0 102.4 20.941 20.582 57.344 4.045 77.517-16.486l264.090-255.642c57.805-19.866 57.805-52.992 0-72.704l-264.090-255.795z" />
<glyph unicode="&#xe921;" glyph-name="34" d="M748.251 112.107h-52.809v-70.405c0-34.649 17.324-52.851 52.809-52.851h35.234v-52.809h-35.234c-66.664 0-105.639 38.975-105.639 105.66v70.405h-123.277v-176.065h-52.809v176.065h-105.66v-70.405c0-66.685-38.975-105.66-105.66-105.66h-35.213v52.809h35.213c35.506 0 52.83 19.226 52.83 52.851v70.405h-52.83c-62.527 0-88.022 21.379-88.022 88.064v651.515c0 66.685 25.496 88.064 88.022 88.064h493.046c66.685 0 91.429-21.379 91.429-88.064v-651.515c0-66.685-24.743-88.064-91.429-88.064zM783.485 851.686c0 22.215-12.999 35.213-35.234 35.213h-493.046c-22.215 0-35.213-12.999-35.213-35.213v-651.515c0-22.235 12.999-43.489 35.213-43.489h493.046c22.235 0 35.234 21.253 35.234 43.489v651.515zM308.036 411.47h387.406v-52.83h-387.406v52.83zM519.419 537.924c-13.479-16.259-26.958-32.559-41.273-49.946-1.313-1.592-3.286-2.599-5.494-2.599-1.636 0-3.144 0.553-4.345 1.483l0.016-0.012c-2.529 2.257-3.365 5.35-2.236 8.15l35.38 100.749-92.933 0.293c-3.929 0-7.022 3.093-7.022-8.234 0 16.927 0.564 18.328 1.672 19.728 27.251 33.395 54.481 66.79 81.711 86.643 13.479 29.821 26.937 46.393 40.709 63.216 1.301 1.598 3.269 2.611 5.473 2.611 1.648 0 3.164-0.566 4.364-1.514l-0.015 0.011c2.257-1.944 3.093-5.036 2.257-11.034l-31.535-97.844 88.795-0.293c3.929 0 7.022-5.517 7.022-6.98 0-0.019 0-0.041 0-0.063 0-1.57-0.526-3.018-1.413-4.175l0.012 0.017c-26.122-36.321-53.624-66.811-81.147-100.206z" />
<glyph unicode="&#xe922;" glyph-name="35" d="M988.992 734.187h-34.709v34.688c0 16.555-8.384 30.272-24.939 30.272s-27.115-13.717-27.115-30.272v-34.688h-138.795v34.688c0 16.555-10.261 30.272-26.816 30.272s-25.237-13.717-25.237-30.272v-34.688h-104.107v190.869c0 16.533-14.699 32.384-29.141 32.384h-130.603c-16.555 0-31.125-15.851-31.125-32.384v-190.869h-104.107v34.688c0 16.555-8.811 30.272-25.365 30.272s-26.688-13.717-26.688-30.272v-34.688h-138.795v34.688c0 16.555-10.667 30.272-27.243 30.272-16.555 0-24.811-13.717-24.811-30.272v-34.688l-39.424 0.704c-16.555 0-29.973-13.44-29.973-29.995v-128.469c0-16.576 18.133-33.109 34.688-33.109h190.848l190.869-190.869v-69.397h-121.451c-7.168 0-34.709-18.155-34.709-34.709v-173.504c0-16.555 27.541-34.688 34.709-34.688h121.451l1.152-74.005c0-16.576 8.213-42.944 24.768-32.277 20.779 2.24 26.112 20.309 26.133 36.864v572.587h91.755v-572.587c0-16.555 4.331-34.645 20.885-34.624 12.565 0.043 26.197 18.069 26.176 34.624v69.419h121.451c16.555 0 34.709 18.133 34.709 34.688v173.504c0 16.555-18.155 34.709-34.709 34.709h-121.451v69.397l208.192 190.869h173.525c16.555 0 34.688 18.133 34.688 34.688v121.451c0 16.555-18.133 34.731-34.688 34.731zM468.459 907.669h91.755v-173.483h-91.755v173.483zM312.299 92.181v138.816h104.107v-138.816h-104.107zM416.405 421.867l-121.451 121.451h121.451v-121.451zM711.381 230.997v-138.816h-104.107v138.816h104.107zM607.275 421.867v121.451h138.795l-138.795-121.451zM971.627 577.707h-919.595v99.627h919.595v-99.627z" />
<glyph unicode="&#xe923;" glyph-name="36" d="M928.879 385.67v-449.625h-591.026v125.351h-304.462v895.533h680.582v-895.533h-304.15v-71.635h465.341v395.91c-43.898 26.98-53.738 65.336-53.738 94.163v280.064h53.738v107.453h53.715v-107.453h53.738v-280.064c0-28.828-9.461-67.94-53.738-94.163zM660.235 115.133v788.035h-573.128v-788.035h573.128zM928.879 706.159h-53.715v-53.715h53.715v53.715zM928.879 598.706h-53.715v-118.873c0-6.545 9.862-24.71 31.744-24.71 12.266 0 21.927 18.432 21.971 24.71v118.873zM606.497 455.435h-465.653v376.097h465.653v-376.097zM552.782 777.817h-358.222v-268.666h358.222v268.666zM315.659 562.888h-67.361v89.555h67.361v-89.555zM409.823 562.888h-71.969v143.271h71.969v-143.271zM499.044 562.888h-53.738v179.111h53.738v-179.111zM372.068 405.192c64.491-0.101 116.74-52.373 116.803-116.864v-0.006c0-78.291-52.402-116.892-116.803-116.892s-116.781 38.6-116.781 116.892c0.051 64.494 52.294 116.768 116.771 116.87h0.010zM372.135 220.449c37.476 0.063 67.835 30.439 67.873 67.914v0.004c-0.013 37.498-30.382 67.899-67.867 67.962h-0.006c-37.501-0.051-67.883-30.456-67.896-67.961v-0.001c0.038-37.487 30.41-67.867 67.891-67.918h0.005z" />
<glyph unicode="&#xe924;" glyph-name="37" d="M819.999 477.546h-124.503l-106.196-123.454c-8.192 8.916-20.505 6.444-31.22 10.889-10.468 4.412-17.683 14.588-17.683 26.449 0 0.018 0 0.035 0 0.053v-0.003 88.114c-97.733 14.734-171.807 98.096-171.882 198.773v0.008c0 110.717 89.962 200.829 200.529 200.829h250.955c111.616 0 202.427-90.112 202.427-200.829 0-110.742-90.811-200.829-202.427-200.829zM819.999 814.392h-250.955c-78.973 0-132.221-56.919-132.221-136.017s53.248-143.435 132.221-143.435c15.835 0 28.647-20.505 28.647-28.722v-45.456l65.686 65.761c5.37 5.37 27.948 8.417 20.255 8.417h136.367c88.114 0 145.133 64.337 145.133 143.435s-57.019 136.017-145.133 136.017zM828.516 632.445c0 0 0 0 0 0-20.566 0-37.239 16.672-37.239 37.239 0 0.018 0 0.035 0 0.053v-0.003c-0.008 0.287-0.012 0.625-0.012 0.964 0 20.566 16.672 37.239 37.239 37.239s37.239-16.672 37.239-37.239c0-0.339-0.005-0.677-0.014-1.014l0.001 0.050c0-20.605-16.659-37.289-37.214-37.289zM692.823 631.321c-20.888 0.021-37.813 16.959-37.813 37.851 0 20.904 16.946 37.851 37.851 37.851 0.013 0 0.026 0 0.040 0h-0.002c20.888-0.021 37.813-16.959 37.813-37.851 0-20.904-16.946-37.851-37.851-37.851-0.013 0-0.026 0-0.040 0h0.002zM560.652 632.844c0 0 0 0 0 0-20.442 0-37.014 16.572-37.014 37.014 0 0.018 0 0.035 0 0.053v-0.003c-0.008 0.286-0.012 0.624-0.012 0.962 0 20.456 16.583 37.039 37.039 37.039s37.039-16.583 37.039-37.039c0-0.338-0.005-0.675-0.014-1.011l0.001 0.050c0-20.48-16.584-37.064-37.039-37.064zM255.9 457.865c36.789-76.975 129.299-168.785 207.547-205.949l72.929 48.652c4.469 3.035 9.982 4.845 15.919 4.845 3.24 0 6.355-0.539 9.258-1.533l-0.201 0.060 171.483-72.229c11.664 10.939 19.556-0.050 19.556-12.388v-114.738c0-47.454-38.388-86.091-85.541-86.091-158.445 0-321.211 71.705-446.564 196.733-125.502 125.153-197.457 287.794-197.457 446.339 0 47.229 38.562 81.396 85.941 81.396h114.588c12.313 0 23.277-3.621 34.142-15.335l50.326-171.732c2.797-11.988 1.573-17.633-3.347-25.001l-48.578-73.029zM199.53 476.647l49.502 74.377-46.305 138.814h-93.958c-16.059 0-28.647-12.413-28.647-28.272 0-301.056 285.147-585.678 586.727-585.678 15.835 0 28.247 12.613 28.247 28.697v94.083l-138.615 46.38-74.277-49.577c-7.842-5.245-17.758-6.269-26.524-2.772-47.903 19.206-101.726 56.919-151.577 106.321-50.176 49.701-88.289 103.399-107.345 151.077-1.295 3.15-2.047 6.807-2.047 10.639 0 5.93 1.8 11.44 4.884 16.012l-0.065-0.102z" />
<glyph unicode="&#xe925;" glyph-name="38" d="M997.594 611.068h-52.207c-10.94 0-19.809 8.869-19.809 19.809s8.869 19.809 19.809 19.809h52.207c22.881 0 19.825-8.863 19.825-19.825 0-10.928 3.055-19.792-19.825-19.792zM886.23 793.508c-3.861-3.878-8.931-5.808-14-5.808-0.006 0-0.013 0-0.021 0-10.94 0-19.809 8.869-19.809 19.809 0 5.475 2.221 10.431 5.812 14.017v0l36.914 29.528c7.739 15.142 20.279 15.142 28.017 0 7.739-0.353 7.739-12.892 0-20.631l-36.914-36.914zM670.989 217.516v-136.091c0-30.099-19.641-51.72-45.912-57.864v-18.046c-0.048-34.729-28.188-62.87-62.913-62.917h-104.033c-34.733 0.038-62.879 28.184-62.917 62.914v18.151c-26.053 6.312-45.459 24.811-45.459 57.764v136.108c0 68.474-26.49 129.074-74.567 175.742-61.054 74.953-93.352 158.485-90.968 237.031 2.317 90.817 37.133 173.744 98.035 233.405s141.077 92.831 225.767 93.419l2.367 0.017c86.738 0 168.272-33.591 244.518-94.745 47.507-61.709 81.735-143.948 81.735-231.525 0-83.649-31.626-163.185-89.038-223.971-49.421-61.977-76.615-130.132-76.615-189.39zM434.847 5.514c0-12.842 10.441-23.283 23.283-23.283h104.028c12.842 0 23.283 10.441 23.283 23.283v16.485h-150.595v-16.485zM389.389 81.425c0-10.928 8.88-19.809 19.809-19.809h202.349c23.166 0 19.809 8.88 19.809 19.809v112.707h-241.966v-112.707zM580.608 524.028h17.811c9.82 0 17.811 7.991 17.811 17.794v3.089c0 9.82-7.991 17.811-17.811 17.811-0.302 0-17.811-7.991-17.811-17.811v-20.883zM540.974 233.766v250.628h-61.725v-250.628h61.725zM712.335 834.266c-51.493 51.445-122.605 83.261-201.148 83.261-1.013 0-2.024-0.005-3.034-0.016l0.154 0.001c-152.71-1.074-280.307-132.432-284.471-278.646-2.098-77.488 26.271-150.864 94.275-206.647 37.166-53.55 67.080-123.518 70.857-198.455h50.646v250.628h-21.722c-18.365 0-57.428 25.768-57.428 57.428v3.089c0 31.677 39.063 57.445 57.428 57.445h3.911c33.792 0 57.445-25.768 57.445-57.445v-20.883h61.725v20.883c0.038 31.711 25.734 57.407 57.441 57.445h0.004c31.677 0 68.020-25.768 68.020-57.445v-3.089c0-31.66-36.344-57.428-68.020-57.428h-17.811v-250.628h51.183c3.895 74.097 34.447 144.703 86.99 200.351 48.437 51.045 78.227 120.198 78.227 196.308 0 0.153 0 0.305 0 0.458v-0.023c0 73.476-30.065 149.202-84.673 203.407zM439.615 524.028v20.883c0 9.82-7.991 17.811-17.811 17.811h-3.911c-9.82 0-17.811-7.991-17.811-17.811v-3.089c0-9.804 7.991-17.794 17.811-17.794h21.722zM699.711 630.876c0 5.221 2.098 10.341 10.039 14.034-0.537 3.66 4.566 5.791 9.787 5.791 5.204 0 10.324-2.132 14-5.791 3.693-3.693 12.305-8.813 12.305-14.034s-8.612-10.307-12.305-14c-3.584-3.583-8.532-5.801-13.999-5.808h-0.001c-5.238 0-10.324 2.098-9.787 5.808-7.94 3.693-10.039 8.78-10.039 14zM711.798 686.038c-2.417-9.736-4.935 3.391-7.403 3.391-7.839 0-7.403 4.7-18.382 12.422-29.176 62.917-96.793 119.069-176.329 119.069h-1.528c-10.878 0-5.389 8.763-6.060 19.674-0.839 10.928-5.019 19.876 5.926 19.943 56.354 0.336 92.345-13.463 141.463-39.869 27.312-25.785 62.615-61.759 81.752-104.012-4.365-10.156 2.35-21.689-19.439-30.619zM125.163 403.313c-3.578-3.588-8.526-5.808-13.992-5.808-0.009 0-0.017 0-0.026 0h0.001c-5.070 0-7.571 1.93-14.017 5.808-3.578 3.589-5.79 8.54-5.79 14.009s2.212 10.42 5.79 14.009l36.93 36.913c3.585 3.585 8.538 5.803 14.009 5.803 10.941 0 19.811-8.87 19.811-19.811 0-5.471-2.217-10.424-5.803-14.009l-36.914-36.914zM148.060 787.699c-5.070 0-10.139 1.93-14 5.808l-36.931 36.914c-7.722 7.739-7.722 20.279 0 20.631 7.756 15.142 20.295 15.142 28.034 0l36.914-29.528c3.591-3.586 5.812-8.542 5.812-14.017 0-10.94-8.869-19.809-19.809-19.809-0.007 0-0.015 0-0.022 0h0.001zM74.903 611.068h-52.207c-10.94 0-19.809 8.869-19.809 19.809s8.869 19.809 19.809 19.809h52.207c10.94 0 19.809-8.869 19.809-19.809s-8.869-19.809-19.809-19.809v0zM886.23 468.245l36.914-36.914c3.585-3.585 5.803-8.538 5.803-14.009 0-10.941-8.87-19.811-19.811-19.811-5.471 0-10.424 2.217-14.009 5.803l-36.914 36.914c-3.585 3.585-5.803 8.538-5.803 14.009 0 10.941 8.87 19.811 19.811 19.811 5.471 0 10.424-2.217 14.009-5.803v0z" />
<glyph unicode="&#xe926;" glyph-name="39" d="M870.262 497.235c0.014 0.277 0.083 0.567 0.083 0.844v12.772c186.506 75.624 136.884 351.274-58.479 354.844-100.781-0.152-178.73-68.899-190.464-160.616-29.531 20.975-66.319 33.532-106.039 33.532s-76.509-12.557-106.611-33.917l0.572 0.385c-11.748 91.717-77.492 160.464-182.134 160.602-203.776-3.57-253.246-279.289-66.823-354.83v-12.772c0-0.277 0.083-0.567 0.097-0.844-84.794-8.839-150.346-79.879-150.445-166.252v-83.563c0-5.258 2.491-10.226 6.698-13.381 50.051-41.873 173.125-89.558 281.475-62.713v-50.536c0-5.286 2.463-10.212 10.531-13.381 126.478-93.571 292.366-93.585 417.1 0 4.221 3.141 6.698 8.095 6.698 13.381v50.536c108.558-26.818 231.382 20.84 281.475 62.727 4.207 3.141 6.698 8.109 6.698 13.367v83.553c-0.111 85.795-57.856 157.613-150.431 166.262zM836.926 498.079c-0.126-9.443-4.148-17.922-10.527-23.923l-0.017-0.016c-6.614-13.824-15.471-9.493-24.548-9.036-17.766 0.883-31.835 15.502-31.835 33.407 0 0.993 0.043 1.975 0.128 2.946l-0.009-0.126c10.087-2.041 21.681-3.209 33.549-3.209 11.764 0 23.26 1.148 34.383 3.338l-1.122-0.184v-3.197zM590.322 358.746c-5.258 11.541-2.366 10.973 0.54 10.531 1.771 7.445 4.054 14.737 6.822 21.864-5.037-2.56-10.212-4.857-6.67-6.933v-17.021c0-2.906-0.554-5.535-0.692-8.441zM439.85 369.277c-2.073 8.64-4.412 15.936-7.219 22.995l0.397-1.131c5.037-2.546 14.073-4.857 15.512-6.947v-17.007c0-2.906 0.055-5.535 0.069-8.441-2.961 11.541-5.853 10.973-8.759 10.531zM294.013 498.079v12.883c13.879 5.369 27.053 5.674 49.581 20.95-8.247-16.868-3.792-33.377 7.611-49-21.352 7.611-39.092 3.003-57.275 14.294 0 0.304 0.083 0.581 0.083 0.872zM483.812 360.739c-1.231 3.455-1.942 7.441-1.942 11.593 0 0.805 0.027 1.603 0.079 2.394l-0.006-0.107c22.085-4.193 52.335-4.193 66.823 0 1.384-18.778-9.894-31.979-26.361-35.508-2.104-0.47-4.521-0.74-7.001-0.74-14.515 0-26.873 9.235-31.519 22.149l-0.073 0.233v-0.014zM697.455 531.913c12.191-15.277 25.365-15.581 39.244-20.95v-12.883c0-0.291 0.083-0.567 0.083-0.872-18.197-11.43-35.937-6.684-52.542-14.294 6.67 15.623 11.126 32.131 13.215 49zM811.866 832.263c82.75-0.097 141.907-67.363 142.004-150.39 2.325-131.958-163.037-200.829-255.875-106.787-4.096 37.487-17.173 65.674-44.599 99.577-1.536 34.456 13.575 82.017 41.901 103.369 28.312 37.528 67.376 54.189 116.57 54.23zM665.697 555.243c-0.097-83.013-67.349-150.293-150.334-150.39-199.459 5.507-199.403 292.546 0 300.779 82.986-0.111 150.237-67.376 150.334-150.39zM76.842 681.873c0 0.012 0 0.026 0 0.040 0 83.043 67.319 150.362 150.362 150.362 0.983 0 1.964-0.009 2.942-0.028l-0.147 0.002c40.365-0.775 78.71-19.622 106.413-47.104 27.717-29.378 42.454-80.73 40.891-110.481-24.922-33.903-40.49-62.090-39.106-99.577-98.262-93.987-262.296-25.226-261.355 106.787zM227.19 498.079c11.209 0.042 26.873 1.149 33.405 3.252 0.072-0.826 0.114-1.787 0.114-2.758 0-8.758-3.362-16.731-8.866-22.699l0.021 0.023c-6.352-6.905-3.197-10.807-24.645-10.835-9.354 0-6.089 3.888-24.645 10.78-6.352 6.864-9.548 16.093-3.307 25.434 5.535-2.090 16.716-3.155 27.925-3.197zM43.437 255.945v75.029c0.104 71.203 55.845 129.354 126.072 133.312l0.351 0.016c11.86-19.632 33.085-32.556 57.329-32.556 24.255 0 45.488 12.936 57.178 32.285l0.168 0.299c60.121-3.369 109.402-45.992 122.809-102.502l0.182-0.908c-65.107-24.022-108.613-85.808-109.277-156.603-92.907-24.576-206.35 13.077-254.81 51.629zM699.115 129.301c-51.116-36.573-114.899-58.479-183.799-58.479-68.866 0-132.62 21.885-184.687 59.080l0.966-0.656v75.070c0.125 70.919 55.545 129.411 137.783 133.314 0.65-20.217 22.473-32.602 46.038-32.602 0.001 0 0.002 0 0.002 0 24.294 0 45.565 12.94 57.298 32.304l0.168 0.298c70.487-4.081 126.116-62.183 126.229-133.303v-75.026zM987.274 255.945c-48.612-38.621-161.889-76.177-254.81-51.629-0.664 70.794-44.17 132.58-105.057 156.603 13.284 58.008 59.295 100.144 118.729 103.41 12.108-20.203 33.917-32.547 66.422-32.547 14.571 0 36.38 12.316 48.502 32.505 70.481-4.088 126.103-62.187 126.215-133.303v-75.040z" />
<glyph unicode="&#xe927;" glyph-name="40" d="M922.59 184.194l-18.852-18.868v-228.503h-807.046v266.089c-0.269 70.136 39.399 119.523 102.232 165.468l151.854 75.961c-20.087 23.305-35.41 51.322-44.085 82.125l-0.367 1.524-47.255 23.636c-16.658 8.399-27.883 25.37-27.883 44.962 0 0.062 0 0.125 0 0.187v-0.010 29.662c0.038 27.848 22.598 50.414 50.44 50.461h16.825v84.102c0.118 102.131 82.843 184.891 184.941 184.991h33.624c102.098-0.101 184.84-82.86 184.958-184.991v-84.102h16.82c27.847-0.038 50.409-22.612 50.428-50.46v-29.664c0-0.055 0-0.121 0-0.186 0-19.586-11.218-36.552-27.58-44.822l-0.287-0.132-47.255-23.636c-9.042-32.327-24.365-60.345-44.689-83.931l0.237 0.281 141.379-70.706c25.718-14.437 45.375-24.089 45.459-49.958v-14.84c0.034-1.444-5.288-14.286-14.772-23.737l-30.737-36.193c-3.156 2.283-4.919-1.981-4.935-6.429v-2.904c0.019-9.282 7.538-16.801 16.819-16.82h2.889c4.449 0.017 8.729 1.779 11.885 4.935l30.737 30.754c9.094 9.136 21.68 14.789 35.587 14.789 0.030 0 0.060 0 0.090 0h2.882c27.852-0.048 50.416-22.623 50.445-50.475v-16.32c0.017 0.034-5.305-12.808-14.789-22.243zM298.454 585.854v57.394h-16.82c-9.282-0.019-16.801-7.538-16.82-16.819v-29.664c-0.017-9.098 3.592-12.221 9.3-15.058l25.399-12.708c-0.42 5.607-1.058 11.163-1.058 16.854zM726.318 581.708c5.708 2.837 9.317 5.959 9.283 15.058v29.662c0 9.266-7.521 16.804-16.804 16.82h-16.82v-57.394c0-5.691-0.638-11.247-1.058-16.854l25.399 12.708zM870.115-29.52v162.094c-8.763-6.916-19.574-10.693-27.413-10.727h-76.364c-4.449-0.017-8.712-7.235-11.885-4.935l-146.398-146.432h262.060zM330.551 396.615l85.294-97.498 33.926 40.759v0.604h0.52l17.626 21.185c-7.688 2.484-15.024 5.909-21.873 4.751l-46.382 34.967c-9.062 5.86-16.888 11.717-24.295 18.050l0.306-0.256-45.123-22.562zM517.019 912.359h-33.624c-83.532-0.101-151.233-67.836-151.317-151.367h336.275c-0.095 83.548-67.789 151.253-151.323 151.367h-0.011zM350.242 727.334l25.214-31.509c9.275-11.582 23.415-18.936 39.272-18.936 0.039 0 0.077 0 0.116 0h170.733c0.035 0 0.077 0 0.119 0 15.865 0 30.012 7.353 39.22 18.837l0.077 0.099 25.197 31.509h-299.948zM668.353 585.854v110.357l-17.106-21.403c-15.47-19.304-39.046-31.56-65.483-31.56-0.066 0-0.131 0-0.197 0h-170.729c-0.054 0-0.119 0-0.183 0-26.425 0-49.99 12.249-65.326 31.378l-0.128 0.165-17.123 21.437v-110.374c-0.168-72.385 32.18-122.259 85.663-156.084l46.365-29.528c10.225-6.579 22.71-10.489 36.109-10.489s25.883 3.909 36.377 10.65l-0.268-0.161 46.365 29.528c53.483 33.826 85.831 83.699 85.663 156.084zM483.395 327.655v-121.722h33.624v121.722l-16.804 20.195-16.82-20.195zM624.758 419.177c-7.588-6.463-15.612-12.406-24.005-17.794l-42.588-34.967c-10.626 1.158-17.979-2.249-25.667-4.751l17.626-21.185h0.537v-0.604l33.926-40.759 85.277 97.498-45.106 22.562zM700.953 381.071l-116.971-133.741-33.322 28.941v-103.978h-100.889v103.978l-33.322-28.957-116.988 133.758-85.496-48.061c-51.401-20.211-83.867-72.721-83.649-130.098v-232.431h134.497v184.991h33.641v-184.991h207.671c-4.65 5.976-5.875 12.389-5.909 18.852 0.038 14.486 5.898 27.595 15.363 37.118l164.66 164.71c3.139 3.173 4.919 7.437 4.935-2.182v87.124c0 0.049 0 0.107 0 0.165 0 13.878 5.648 26.438 14.77 35.505l46.518 46.535-45.509 22.763zM903.739 222.754c0 9.3-7.521 16.82-16.804 16.82h-2.887c-4.465 0-8.729-5.103-11.902-4.919l-30.737-36.948c-9.434-3.307-22.276-8.628-35.655-8.595h-2.887c-27.846 0.048-50.406 22.614-50.445 50.458v2.908c0 0.037 0 0.080 0 0.123 0 13.891 5.647 26.464 14.771 35.547l30.739 30.756c3.139 3.156 4.919 7.42 4.935-0.067v14.84c-0.010 9.282-7.537 16.804-16.82 16.804h-2.887c-4.449 0-8.729-3.441-11.885-4.919l-47.557-52.241c-3.139 1.511-4.919-2.753-4.919-7.218v-87.124c0.034 0.671-5.288-12.17-14.772-21.622l-164.663-169.245c-7.353-2.82-7.336-14.756 0.017-22.092 7.353-15.679 19.271-15.847 26.641-0.034l164.663 164.713c22.881 9.501 22.276 14.806 35.655 14.772h76.364c1.125 0.017 5.405 1.796 8.561 4.935l47.557 47.574c3.139 3.156 4.919 7.42 4.919-1.544v16.317zM483.395 138.668h33.624v-67.299h-33.624v67.299zM332.078 138.668h117.693v-33.641h-117.693v33.641z" />
<glyph unicode="&#xe928;" glyph-name="41" d="M762.527 796.244h-58.922v-135.050c0 6.732-3.273 0.604-8.746-3.038l-130.585-87.057c146.113-26.909 257.158-155.228 257.158-308.979 0-156.068-94.796-261.002-220.999-300.15-1.93-0.604 1.544-0.89-5.808-0.89-8.393 0-16.149 5.389-18.768 13.816-3.206 0.386 2.585 21.353 12.943 24.559 115.662 23.67 207.402 141.446 207.402 262.664 0 151.586-137.384 274.919-288.969 274.919-151.602 0-274.936-123.333-274.936-274.919 0-121.218 77.706-238.995 193.368-262.664 10.358-3.206 16.149-24.173 12.926-24.559-2.558-8.068-9.98-13.813-18.744-13.813-2.082 0-4.088 0.324-5.971 0.925l0.139-0.038c-126.288 39.181-219.287 144.753-219.287 300.15 0 153.751 109.333 282.070 255.446 308.979l-130.585 87.057c-5.456 3.643-6.178 9.77-6.178 3.038v135.050h-61.474c-32.483 0-57.21 26.439-57.21 58.922v39.281c0 32.483 24.727 58.905 57.21 58.905h510.59c32.517-0.038 58.867-26.388 58.905-58.902v-39.285c-0.038-32.52-26.386-58.874-58.901-58.922h-0.005zM313.411 914.071h-61.474c-10.841 0-19.631-8.784-19.641-19.623v-39.282c0-10.828 8.813-19.641 19.641-19.641h61.474v78.546zM434.109 914.071h-83.985v-229.057l83.985-52.375v281.432zM554.807 914.071h-86.855v-316.668l39.281-17.123 47.574 17.123v316.668zM675.504 914.071h-89.726v-281.432l89.726 52.375v229.057zM796.202 894.447c0 10.828-22.847 19.624-33.674 19.624h-58.922v-78.546h58.922c10.828 0 33.674 8.813 33.674 19.641v39.281zM605.335 127.052c-3.195-2.342-7.204-3.748-11.541-3.748-3.303 0-6.415 0.815-9.147 2.256l0.107-0.052-77.522 40.255-62.716-40.255c-21.403-3.425-29.377-2.837-35.404 1.544-4.924 3.616-8.084 9.384-8.084 15.89 0 1.129 0.095 2.236 0.278 3.313l-0.016-0.116 14.319 86.201-62.246 61.306c-3.61 3.561-5.847 8.507-5.847 13.975 0 2.169 0.352 4.256 1.002 6.207l-0.040-0.139c2.3-4.851 8.393 12.238 15.746 13.362l86.385 12.993 39.063 78.126c3.283 6.502 9.909 10.883 17.559 10.883s14.276-4.381 17.508-10.771l0.051-0.112 52.509-78.126 72.922-12.993c7.353-1.125 18.734-18.214 15.763-13.362 2.3-7.067 0.403-14.84-4.902-20.044l-62.229-61.306 18.231-86.201c12.254-7.319-5.741-14.722-11.751-19.087zM605.537 294.047l-57.613 8.662c-6.312-13.849-11.784 4.919-14.638 10.626l-26.053 52.123-26.053-52.123c-2.871-5.708-8.326-24.475-14.655-10.626l-57.613-8.662 41.514-40.893c4.566-4.465 6.648-10.911 5.59-17.207l5.12-57.478 37.032 26.842c2.628 1.395 5.747 2.215 9.057 2.215s6.428-0.819 9.163-2.266l-0.107 0.051 51.704-26.842-9.552 57.478c-1.041 6.295 1.041 12.741 20.547 17.207l26.557 40.893zM507.233-12.834c10.847 0 19.641-8.793 19.641-19.641s-8.793-19.641-19.641-19.641v0c-0.269 0-19.641 8.796-19.641 19.657 0 10.844 19.372 19.624 19.641 19.624z" />
<glyph unicode="&#xe929;" glyph-name="42" d="M799.687 832.569h-19.115v60.985c0 29.582-20.082 48.697-48.754 48.697-28.729 0-48.811-19.115-48.811-48.697v-60.985h-317.554v60.985c0 29.582-19.115 48.697-15.019 48.697-63.431 0-82.546-19.115-82.546-48.697v-60.985h-44.032c-92.729 0-171.179-65.934-171.179-172.942v-502.101c0-92.558 78.45-170.837 171.179-170.837h575.829c92.786 0 171.236 78.279 171.236 170.837v502.101c0 107.008-78.45 172.942-171.236 172.942zM223.858 747.52h575.829c39.253 0 73.671-34.361 73.671-87.893v-53.419h-723.115v53.419c0 53.532 34.418 87.893 73.614 87.893zM799.687 84.935h-575.829c-39.196 0-73.614 34.418-73.614 27.989v395.89h722.148v-395.89c0.967 6.428-33.451-27.989-72.704-27.989z" />
<glyph unicode="&#xe92a;" glyph-name="43" d="M947.769 244.167c-113.152 181.305-273.067 227.328-282.795 224.427 67.36 49.613 110.582 128.615 110.592 217.712v0.002c0 148.878-104.277 236.715-270.108 236.715-148.935 0-270.052-87.836-270.052-236.715 0-89.259 43.577-168.562 110.535-217.714 8.761 2.901-169.643-43.122-274.603-224.427-6.997-12.117-6.997-57.287 0-39.196 87.097-150.471 249.572-259.3 434.119-259.3 184.491 0 347.022 108.828 442.311 259.3-1.138-18.091-1.138 27.079 0 39.196zM505.458 866.873c105.756 0 180.508-74.866 180.508-180.565s-74.809-190.521-180.565-222.379c-105.529 41.87-173.852 148.423-173.852 222.379 0 0 12.516 180.565 173.909 180.565zM172.942 223.175c39.196 83.058 167.481 184.206 332.516 184.206s285.412-104.391 337.806-182.898c-52.053-72.021-195.925-191.602-337.806-191.602 0.057 0-193.877-13.995-332.516 190.293z" />
<glyph unicode="&#xe92b;" glyph-name="44" d="M403.237 29.257c-28.891-29.184-80.823-49.006-110.665-19.529-28.891 28.233-28.891 117.906 0 146.213l219.429 219.429c-0.512 0 41.033 35.913 41.033 73.362 0 35.913-41.033 72.923-41.033 72.923l-219.429 219.355c-28.891 29.403-28.891 117.979 0 146.213 29.842 29.477 81.847 5.851 110.665-23.552l377.271-365.202c82.578-28.306 82.578-75.63 0-103.79l-377.271-365.422z" />
<glyph unicode="&#xe92c;" glyph-name="45" d="M849.701 563.566c-7.241 12.813-20.772 21.321-36.29 21.321-0.009 0-0.018 0-0.026 0h-248.684l42.606 325.925c0.227 1.633 0.357 3.521 0.357 5.438 0 18.007-11.425 33.345-27.422 39.16l-0.29 0.092c-18.469-15.616-39.058-0.695-16.75-17.445l-363.886-539.611c-3.869-6.207-6.163-13.743-6.163-21.814 0-7.461 1.96-14.464 5.393-20.523l-0.108 0.207c7.351-13.166 21.248-50.944 36.315-50.944h244.626l-38.29-302.080c-2.304-14.153 9.216-49.006 27.648-38.949 4.065-1.46 8.756-2.304 13.643-2.304 14.923 0 28.008 7.868 35.333 19.681l0.102 0.177 331.008 539.538c3.869 6.207 6.163 13.743 6.163 21.814 0 7.461-1.96 14.464-5.393 20.523l0.108-0.207zM545.682 186.441l27.026 157.696c13.897 39.424-7.607 51.273-15.506 60.16-7.627 8.587-18.697 13.97-31.025 13.97-0.021 0-0.043 0-0.064 0h-216.975l190.427 310.162-23.479-179.785c-1.573-11.886 2.048-23.881 9.984-32.878 29.586-8.997 19.273-14.153 31.232-14.153h221.733l-193.353-315.173z" />
<glyph unicode="&#xe92d;" glyph-name="46" d="M616.937 269.056c-40.262-16.663-86.621-9.565-117.457 23.319-19.491 19.46-31.549 46.36-31.549 76.076 0 14.864 3.017 29.024 8.472 41.9l-0.265-0.705c16.639 39.328 54.903 66.42 99.495 66.42 0.023 0 0.046 0 0.070 0h-0.004c19.991 0.047 39.587-13.638 56.39-16.477l100.957 69.865c15.5 22.691 37.958 20.108 50.292 4.724 11.753-15.337 20.736-37.236-5.748-49.501l-81.734-80.361c-14.615-11.473-12.428-23.622-12.381-35.863-0.002-44.596-27.155-82.85-65.829-99.134l-0.707-0.264zM589.452 401.594c-13.428 5.562-10.659 2.49-39.145-7.773-10.287-10.263 1.722-25.693-7.796-55.203 5.562 2.7 18.641-6.028 33.187-6.028 19.79 0.040 35.817 16.091 35.817 35.886 0 14.83-8.996 27.559-21.828 33.028l-0.234 0.089zM993.745 204.986c-59.136-109.591-146.804-196.096-257.071-239.197-110.266-43.078-233.449-38.982-336.617 11.311-22.039 8.239-29.999 29.533-21.783 47.523 8.239 18.060 29.556 10.287 47.616 17.78 127.721-58.554 277.9-44.497 384.372 33.699 106.473 112.081 149.69 257.257 110.615 392.029-39.075 134.796-153.297 221.673-271.569 255.046-152.204 20.62-278.342-41.588-374.668-163.002-5.236-4.212-13.452-9.775-22.807-11.753-2.211-0.482-4.75-0.759-7.354-0.759-7.353 0-14.192 2.203-19.892 5.985l0.133-0.083c-8.029 5.213 1.257 13.405-15.569 22.761-1.955-8.239-0.093 19.084 5.143 27.089 51.852 79.127 128.349 139.008 217.693 168.076v63.302c0.066 59.434 48.263 107.59 107.706 107.59 0.025 0 0.049 0 0.074 0h71.862c0.021 0 0.045 0 0.070 0 59.444 0 107.64-48.155 107.706-107.583v-63.308c112.012-36.049 203.287-118.737 252.393-226.304 49.129-107.613 51.759-230.609 21.946-340.201zM647.54 834.793c0 19.805-16.081 35.84-35.91 35.84h-71.866c-0.021 0-0.045 0-0.070 0-19.794 0-35.84-16.046-35.84-35.84 0 0 0 0 0 0v0-42.705c23.715-2.444 47.732 6.54 71.843 6.796 24.087-0.116 48.128-6.679 71.843-6.423v42.333zM360.145 440.204c0-19.828-16.081-35.887-35.933-35.887h-215.552c-0.272-0.007-0.592-0.012-0.914-0.012-19.82 0-35.887 16.067-35.887 35.887s16.067 35.887 35.887 35.887c0.321 0 0.642-0.004 0.961-0.013l-0.047 0.001h215.552c19.852 0 35.933-16.035 35.933-35.863zM360.145 296.727c0-19.828-16.081-44.451-35.933-44.451h-287.395c-19.852 0-27.974 24.623-27.974 44.451 0 19.805 8.122 35.863 27.974 35.863h287.395c19.852 0 35.933-16.058 35.933-35.863zM108.66 189.114h215.552c0.472 0.022 1.026 0.035 1.583 0.035 19.832 0 35.91-16.077 35.91-35.91s-16.077-35.91-35.91-35.91c-0.557 0-1.111 0.013-1.661 0.038l0.078-0.003h-215.552c-0.272-0.007-0.592-0.012-0.914-0.012-19.82 0-35.887 16.067-35.887 35.887s16.067 35.887 35.887 35.887c0.321 0 0.642-0.004 0.961-0.013l-0.047 0.001z" />
<glyph unicode="&#xe92e;" glyph-name="47" d="M999.351 346.331l-198.437 269.873c-30.696 14.97-56.052 14.97-55.832 0l-122.027-136.436h-81.749v139.24c63.973 1.615 125.251 8.411 184.816 19.998l-6.957-1.127c0.683 0.098 1.365 0.244 2.072 0.39 44.325 6.705 68.145 15.067 99.84 25.088 12.337 4.55 20.976 16.205 20.976 29.879 0 17.545-14.223 31.768-31.768 31.768-2.961 0-5.827-0.405-8.546-1.163l0.223 0.053c-13.726-6.632-42.764-12.483-65.243-17.579-18.627 41.57-43.252 107.983-72.070 146.408 159.744-60.123 273.31-227.23 278.114-393.045 0.463-17.506 14.872-31.354 39.79-30.891 10.313 0.463 20.017 26.21 19.554 43.739-7.144 270.653-219.234 465.579-490.106 465.579-273.432 0-490.082-216.576-490.082-490.082 0-141.117 58.051-273.091 146.798-359.107 1.243-1.487 9.021-2.853 24.381-4.12-19.675-0.414-19.139-0.829-18.651-1.219 88.43-81.627 208.043-125.635 337.554-125.635 231.863 0 361.594 121.515 384.658 336.75h77.995c12.19 0 23.333 4.584 28.599 18.042 5.291-10.045 3.755 24.088-3.901 33.597zM310.638 479.768c1.926 54.126 30.208 105.838 19.383 153.064 47.616-7.753 97.28-12.361 147.822-13.751v-139.313h-167.205zM541.306 682.52v149.797c0.008 0.262 0.012 0.57 0.012 0.88 0 17.532-14.212 31.744-31.744 31.744s-31.744-14.212-31.744-31.744c0-0.309 0.004-0.618 0.013-0.925l-0.001 0.045v-149.748c-47.445 1.367-92.631 5.626-136.903 12.632l6.001-0.782c36.669 111.64 96.914 186.124 163.499 186.124 63.22 0 143.945-71.973 163.401-186.149-42.715-6.632-73.826-10.63-132.535-11.874zM215.576 131.974c-84.553 78.97-137.509 191.439-137.509 316.050 0 183.808 115.224 331.557 277.236 403.724-28.745-44.861-53.004-99.962-71.241-145.408-27.71 6.231-49.529 12.273-70.964 19.172l5.818-1.618c-2.857 0.934-6.144 1.473-9.557 1.473-17.531 0-31.742-14.211-31.742-31.742 0-14.117 9.216-26.082 21.96-30.206l0.225-0.063c41.326-6.875 48.396-12.971 67.73-18.31-11.16-48.856-18.496-105.656-20.37-163.835l-0.037-1.443h-118.028c-17.532 0-31.744-14.212-31.744-31.744s14.212-31.744 31.744-31.744h118.053c1.877-57.051 8.875-113.176 20.529-182.833-18.505 12.215-26.063 6.12-67.877-0.78-16.701-16.043-25.966-23.113-20.699-39.814 4.291-18.164 24.235-22.187 30.257-22.187 3.17 0 6.388 0.488 9.557 1.438 86.626 27.38 187.416 41.838 291.523 41.838 10.752 0 21.431-0.122 32.012-0.439 16.969-0.171 32.134-2.243 32.597 30.842 0.488 17.506-4.291 24.454-30.842 29.33-11.166-3.657-22.43 3.779-33.768 3.779-61.781 0-122.612-4.876-180.468-14.263 8.436 48.055-17.432 100.059-19.31 153.088h261.339l-56.247-69.925c-7.68-9.509-9.216-43.422-3.901-33.597 5.221-10.757 16.062-18.042 28.604-18.042 0.007 0 0.014 0 0.021 0h72.459c-13.531-71.778-71.534-159.768-152.771-179.858-87.503-41.521-178.688-35.084-244.59 17.115zM867.352 358.205c-16.872 0-30.793-13.19-31.695-30.037 9.874-94.013-46.933-312.661-325.218-312.661-37.498 0-73.923 4.803-108.666 13.848 28.526 5.315 57.271 14.653 85.602 24.162 114.883 58.441 192.073 166.546 192.073 272.945 0 17.554-14.214 31.744-31.744 31.744h-40.96l166.619 187.441 134.997-187.441h-41.009z" />
<glyph unicode="&#xe92f;" glyph-name="48" d="M691.61 300.567c-54.227 0.006-105.357 13.266-150.326 36.717l1.8-0.855-187.46-46.876 46.763 189.508c-22.614 43.187-35.884 94.341-35.886 148.593v0c0 180.338 145.863 327.066 325.109 327.066 179.701 0 327.066-147.342 327.066-327.066 0-179.701-147.342-327.088-327.066-327.088zM691.61 895.602c-146.66 0-265.99-120.195-265.99-267.947 0-81.715 37.228-134.463 39.663-140.334l-28.763-116.599 114.711 28.672c6.19-2.594 58.209-39.708 140.379-39.708 147.752 0 267.969 100.147 267.969 267.969 0 147.752-120.218 267.947-267.969 267.947zM551.526 715.446h289.633v-55.865h-289.633v55.865zM750.023 545.644h-198.497v55.842h198.497v-55.842zM422.502 179.484l87.427 65.035 211.24-70.406v-139.537c-0.065-48.945-39.731-88.604-88.673-88.656h-0.005c-342.562 0-622.615 279.575-622.615 622.615 0 37.842 39.777 88.656 88.678 88.656h139.583l70.315-213.265-58.231-87.336c34.065-74.798 95.71-135.76 172.282-177.106zM189.326 348.718l7.737 14.404 46.239 89.634-47.9 145.34h-96.848c-16.293 0-23.006-13.244-23.006-29.559 0-310.704 246.238-563.496 556.942-563.496 16.316 0 48.811 13.266 48.811 29.537v96.939l-162.657 47.787-89.566-59.733-14.45 5.803c-102.878 41.142-166.138 122.561-225.303 223.346z" />
<glyph unicode="&#xe930;" glyph-name="49" d="M884.585-38.611h-745.201c-62.964 0.069-113.987 51.092-114.056 114.049v669.131c0 45.267 51.17 114.056 114.056 114.056h45.628v76.047h76.047v-76.047h501.85v76.047h76.047v-76.047h45.628c62.886 0 114.025-68.789 114.025-114.056v-669.124c-0.051-62.96-51.068-113.987-114.019-114.056h-0.007zM922.594 744.568c0 20.962 1.114 38.039-38.008 38.039h-45.628v-76.047h-76.047v76.047h-501.85v-76.047h-76.047v76.047h-45.628c-20.962 0-38.008-17.077-38.008-38.039v-91.226h821.218v91.226zM922.594 577.295h-821.218v-501.85c0-39.153 17.047-38.039 38.008-38.039h745.201c39.123 0 38.008-1.114 38.008 38.039v501.85zM267.083 298.165l52.585 54.874 137.427-131.644 245.128 274.763 56.742-72.855-297.592-311.326-194.289 186.187z" />
<glyph unicode="&#xe931;" glyph-name="50" d="M818.33 551.808l-441.267-595.686c-19.379-26.163-61.363-5.939-52.352 25.805l104.678 368.41-191.411-47.155c-26.547-6.528-35.226 23.526-31.334 45.926l418.97 595.686c19.174 3.2 61.901 6.758 52.787-25.242l-105.037-368.051 214.81 47.002c26.701 5.862 46.438-44.518 30.157-46.694zM537.549 482.893c-21.965-4.813-40.986 9.651-34.867 37.146l70.502 247.091-272.41-387.302 164.019 20.557c22.144 25.293 41.83 4.71 46.694-17.126l-85.248-261.043 297.318 390.554-186.010-29.875zM324.352 663.808c-11.238-1.51-20.736-7.501-43.699-0.128-14.669 7.322-20.608 25.165-13.261 35.2l37.837 66.816h-70.477c-22.605 0-36.352 37.222-26.701 56.525l59.341 118.758c7.322 14.669 25.139 3.405 39.782 13.261 31.002-7.322 20.608-25.139 17.178-39.808l-41.779-75.776h70.656c21.888 0 36.403-23.219 26.547-42.982l-55.424-131.866zM682.752 224.742c5.191 9.1 14.831 15.135 25.881 15.135 16.401 0 29.696-13.295 29.696-29.696 0-4.476-0.99-8.721-2.764-12.527l0.076 0.183-37.811-74.419 71.168-1.178c16.173-0.331 29.158-13.52 29.158-29.741 0-4.815-1.144-9.362-3.175-13.386l0.078 0.17-59.341-128.435c-7.296-4.941-25.088-10.931-39.782-3.584-14.643 7.322-20.608 25.165-13.261 27.136l38.246 86.016-71.014 4.429c-22.758 3.942-38.554 19.482-26.496 43.136l59.341 116.762z" />
<glyph unicode="&#xe932;" glyph-name="51" d="M511.973-63.973c-282.301 0-511.973 229.699-511.973 512s229.672 511.973 511.973 511.973c21.312 0 38.589-17.277 38.589-38.589s-17.277-38.589-38.589-38.589v0c-239.751 0-434.796-195.045-434.796-434.796 0-239.778 195.045-434.823 434.796-434.823 239.778 0 434.823 195.045 434.823 434.823 0 21.312 17.277 38.589 38.589 38.589s38.589-17.277 38.589-38.589v0c0-282.301-229.672-512-512-512zM503.215 275.321c-7.222-7.222-7.114-11.264-27.244-11.264l-0.835 0.027c-10.911 0.227-20.675 4.956-27.543 12.396l-0.024 0.026-194.237 210.971c-14.444 15.683-13.447 28.699 2.237 54.515 31.96 14.444 40.098 10.024 54.541-2.237l167.047-181.437 462.983 461.77c6.979 6.959 16.609 11.261 27.244 11.261 21.31 0 38.586-17.275 38.586-38.586 0-10.675-4.335-20.338-11.341-27.324l-491.413-490.12z" />
<glyph unicode="&#xe933;" glyph-name="52" d="M76.364 112.363v-61.306c0-6.396 2.988-12.389 12.775-16.233 153.432-113.513 354.673-113.53 505.99 0 5.12 3.811 8.125 9.837 8.125 16.233v61.306c131.693-32.533 280.694 25.298 341.462 76.095 4.947 3.738 8.114 9.606 8.125 16.214v101.361c-0.134 104.095-70.186 191.203-182.49 201.694 0.017 0.353 0.101 0.688 0.101 1.024v15.494c226.254 91.74 166.056 426.135-70.941 430.483-122.259-0.201-216.819-83.599-231.071-194.862-35.819 25.453-80.445 40.691-128.63 40.691s-92.811-15.238-129.321-41.158l0.692 0.466c-16.787-13.581-28.034-23.099-38.845-36.898-30.233-40.96-49.118-75.323-47.44-120.798-4.029-16.72-1.847-34.816 6.547-52.375-10.005-20.463-4.6-40.49 9.233-59.426 3.374-16.904 15.864-49.421 43.965-67.534 21.504-19.674 28.084-65.486 24.358-80.46-78.982-29.159-131.76-104.112-132.566-189.994zM729.911 508.752c-0.149-11.451-5.029-21.733-12.77-29.005l-0.021-0.020c-8.024-16.787-18.768-11.533-29.78-10.979-21.552 1.071-38.62 18.806-38.62 40.527 0 1.204 0.052 2.396 0.155 3.574l-0.011-0.153c12.236-2.476 26.302-3.893 40.698-3.893 14.271 0 28.218 1.392 41.71 4.049l-1.361-0.223v-3.878zM430.751 339.725c-6.379 14-2.871 13.312 0.655 12.775 2.149 9.031 4.919 17.878 8.276 26.54-6.11-3.122-12.389-5.892-8.091-8.427v-20.48c0-3.693-0.671-6.883-0.839-10.408zM248.211 352.499c-2.519 10.494-5.357 19.349-8.759 27.92l0.483-1.38c6.11-3.089 17.072-5.892 18.818-8.444v-20.463c0-3.693 0.067-6.715 0.084-10.408-3.592 14-7.101 13.312-10.626 12.775zM301.543 342.142c-1.492 4.194-2.355 9.031-2.355 14.070 0 0.974 0.032 1.94 0.096 2.897l-0.007-0.13c26.792-5.070 63.488-5.070 81.064 0 1.679-22.78-12.003-38.794-31.979-43.075-2.553-0.571-5.485-0.898-8.493-0.898-17.608 0-32.6 11.203-38.236 26.869l-0.089 0.283v-0.017zM560.716 549.796c14.789-18.533 30.77-18.885 47.608-25.415v-15.629c0-0.353 0.101-0.688 0.101-1.058-22.075-13.866-43.596-8.108-63.74-17.324 8.091 18.936 13.497 38.962 16.031 59.426zM699.51 914.155c100.386-0.118 172.15-81.719 172.267-182.44 2.82-160.080-197.783-243.611-310.406-129.544-4.969 45.476-20.833 79.838-54.104 120.798-1.863 41.967 16.468 99.496 50.831 125.398 34.346 45.526 81.735 65.737 141.413 65.788zM522.19 578.098c-0.118-100.705-81.702-182.306-182.373-182.44-241.966 6.681-241.899 354.892 0 364.88 100.671-0.134 182.255-81.735 182.373-182.44zM562.73 61.381c-62.008-44.362-139.379-70.934-222.957-70.934-83.547 0-160.892 26.552-224.058 71.679l1.172-0.795v91.069c0.151 86.016 67.383 156.974 167.147 161.708 0.789-24.526 27.262-39.55 55.85-39.55 0.001 0 0.002 0 0.003 0 29.471 0 55.276 15.698 69.509 39.188l0.204 0.362c85.506-4.942 152.993-75.422 153.13-161.695v-91.032zM912.3 215.015c-58.972-46.852-196.39-92.395-309.114-62.632-0.823 85.882-53.584 160.835-127.446 189.994 16.115 70.354 71.932 121.487 144.031 125.432 14.689-24.509 41.145-39.483 80.577-39.483 17.66 0 44.133 14.957 58.838 39.432 85.505-4.951 152.986-75.437 153.113-161.712v-91.030z" />
<glyph unicode="&#xe934;" glyph-name="53" d="M631.938 119.527l-115.683-173.474-115.698 173.474c-177.83 50.493-309.378 213.641-309.378 408.432 0 234.28 196.406 424.917 425.075 424.917 234.381 0 425.061-190.637 425.061-424.917 0-195.425-132.154-358.112-309.378-408.432zM516.255 883.993c-198.324 0-359.684-157.797-359.684-356.035 0-164.878 111.977-308.123 272.312-348.347l23.408-3.072 63.964-112.64 75.127 112.64 12.23 3.072c160.335 40.224 272.312 183.469 272.312 348.347 0 198.238-155.518 356.035-359.669 356.035zM516.255 233.782c-156.557 0-294.277 131.966-294.277 294.176 0 162.196 137.721 294.162 294.277 294.162 162.254 0 294.277-131.966 294.277-294.162 0-162.21-132.024-294.176-294.277-294.176zM516.255 744.672c-126.212 0-228.886-90.559-228.886-216.713 0-63.892 29.984-129.298 68.709-163.278 44.046-38.364 62.075-43.426 62.075-43.426l0.13-0.058c28.555-13.916 62.124-22.052 97.594-22.052 0.133 0 0.266 0 0.399 0h-0.021c35.076 0 77.867-0.851 110.549 22.11 29.278 13.269 49.614 43.426 49.614 43.426 42.419 41.457 68.723 99.246 68.723 163.18 0 0.034 0 0.069 0 0.103v-0.005c0 126.154-96.847 216.713-228.886 216.713z" />
<glyph unicode="&#xe935;" glyph-name="54" d="M931.915 249.519c-16.199 0-29.332 13.125-29.346 29.32v238.543c0 210.245-171.033 381.253-381.253 381.253-210.245 0-381.278-171.008-381.278-381.253v-238.542c0-16.201-13.133-29.334-29.334-29.334s-29.334 13.133-29.334 29.334v0 238.542c0 240.315 197.357 439.92 439.945 439.92 261.669 0 439.92-199.605 439.92-439.92v-238.542c0-16.184-13.137-29.321-29.321-29.321zM286.67 546.704c48.528 0 87.989-39.461 87.989-103.699v-222.807c-0.043-48.583-39.408-87.957-87.984-88.014h-0.006c-40.411 0-87.989 39.486-87.989 88.014v222.807c0 64.237 47.579 103.699 87.989 103.699zM257.349 220.197c0.477-15.835 13.427-28.49 29.334-28.49s28.857 12.655 29.333 28.446l0.001 0.044v222.807c0 31.894-13.162 45.056-29.346 45.056-16.159 0-29.321-13.162-29.321-45.056v-222.807zM521.316 132.183c38.213 0 70.831-24.501 82.919-58.643h93.034c51.999 0 73.228 26.349 84.193 62.464-8.067-22.928-16.659-3.821-25.525-3.821-48.581 0.057-87.946 39.431-87.989 88.010v222.811c0 64.237 39.461 103.699 87.989 103.699 48.503 0 87.989-39.461 87.989-103.699v-281.475c-0.099-80.951-65.704-146.547-146.649-146.632h-93.042c-12.46-34.447-44.857-58.631-82.912-58.693h-0.008c-48.581 0.057-87.946 39.431-87.989 88.010v0.004c0.057 48.567 39.42 87.921 87.985 87.964h0.004zM785.258 443.005c0 31.894-13.162 45.056-29.321 45.056-16.184 0-29.321-13.162-29.321-45.056v-222.807c0-16.194 13.128-29.321 29.321-29.321s29.321 13.128 29.321 29.321v0 222.807zM521.316 14.898c20.655 0 29.321 13.162 29.321 29.321 0 11.664-8.667 29.321-29.321 29.321-16.184 0-29.346-17.658-29.346-29.321 0-16.159 13.162-29.321 29.346-29.321z" />
<glyph unicode="&#xe936;" glyph-name="55" d="M995.138 20.082c-10.202-13.919-25.372-15.815-35.044 1.062-31.137 29.892-65.596 56.777-102.632 79.921l-2.65 1.544c-71.718 44.525-188.681 86.357-338.83 86.357s-267.15-41.832-338.868-86.357c-39.683-24.704-74.14-51.588-105.501-81.674l0.219 0.209c-9.671-20.67-24.879-15.36-35.044-1.062-11.567 9.975-12.098 9.975-1.138 38.381 33.255 31.976 70.032 60.758 109.551 85.575l2.824 1.655c77.748 48.621 204.686 106.496 367.957 106.496 163.233 0 290.209-57.875 367.919-106.496 42.34-26.476 79.115-55.244 112.603-87.41l-0.229 0.218c10.961-28.444 10.43-28.444-1.138-38.419zM515.982 329.861c-151.021 0-273.901 123.145-273.901 274.508s122.88 274.47 273.901 274.47 273.863-123.108 273.863-274.47-122.842-274.508-273.863-274.508zM515.982 819.409c-118.329 0-214.623-96.484-214.623-215.040 0-118.632 96.294-231.462 214.623-231.462s214.585 112.83 214.585 231.462c0 118.556-96.256 215.040-214.585 215.040z" />
<glyph unicode="&#xe937;" glyph-name="56" d="M751.985 869.888c-107.889 0-155.197-52.92-214.508-104.325-9.953-40.264-18.391-26.706-25.518-39.322-7.086 12.616-15.524-0.942-25.477 39.322-38.298 51.405-106.619 104.325-214.508 104.325-76.718 0-126.157-21.709-197.304-97.894-48.169-30.228-74.67-110.182-74.67-174.285 0-81.060 33.26-156.385 104.653-237.158 63.857-72.172 155.689-146.555 262.021-232.694 39.608-32.154 80.609-65.331 124.232-101.663l7.578-1.065c-0.614-4.751 6.431-7.086 13.476-7.086 0.056 0 0.121-0.001 0.187-0.001 7.476 0 14.326 2.678 19.645 7.126l-0.048-0.039 6.472 1.065c67.584 36.332 108.544 69.509 136.397 101.663 89.006 86.139 180.838 160.522 244.695 232.694 71.393 80.773 104.653 156.099 104.653 237.158 0 64.102-26.501 144.056-74.711 174.285-50.504 76.186-120.545 97.894-197.263 97.894zM654.131 171.192c-69.919-27.648-105.103-56.156-142.172-86.753-11.096 9.743-45.712 38.138-80.466 66.369l-25.907 20.384c-208.118 168.632-345.62 280.125-345.62 426.516 0 60.498 21.217 116.777 59.72 158.269 38.953 42.025 93.061 65.208 152.289 65.208 82.248 0 135.414-48.21 165.56-88.637 18.574-24.95 34.105-53.677 45.191-84.524l0.725-2.311c4.304-11.57 15.254-19.664 28.094-19.664 0.146 0 0.291 0.001 0.436 0.003h-0.022c12.984 0 60.662 7.946 28.549 19.661 11.79 33.16 27.323 61.889 46.541 87.714l-0.625-0.879c49.275 40.428 83.272 88.637 165.56 88.637 59.228 0 113.295-23.183 180.265-65.208 16.794-41.492 31.703-97.772 31.703-158.269 0-146.391-137.462-257.884-309.821-426.516z" />
<glyph unicode="&#xe938;" glyph-name="57" d="M875.609 251.036h-588.31c-58.591 209.875-116.558 419.929-174.97 629.894h-83.256v72.659h138.507l50.443-181.96h805.933l-148.346-520.593zM342.372 323.651h478.386l106.941 375.363h-689.419l104.092-375.363zM412.494 191.777c70.107-0.277 126.871-57.010 127.198-127.078v-0.031c-0.302-70.119-57.076-126.877-127.172-127.154h-0.027c-70.113 0.302-126.871 57.045-127.198 127.123v0.031c0.352 70.090 57.102 126.808 127.17 127.109h0.029zM412.494 10.173c30.542 0 54.539 23.953 54.539 54.495 0 30.497-23.997 54.406-54.539 54.406-30.497 0-38.066-23.908-38.066-54.406 0-30.542 7.569-54.495 38.066-54.495zM739.595 191.777c70.097-0.302 126.846-57.020 127.198-127.076v-0.034c-0.327-70.109-57.086-126.852-127.17-127.154h-0.029c-52.179 0-127.199 57.344-127.199 127.154 0 69.766 75.019 127.11 127.199 127.11zM739.595 10.173c30.542 0 54.495 23.953 54.495 54.495 0.002 0.16 0.003 0.349 0.003 0.538 0 29.752-24.119 53.871-53.871 53.871-0.22 0-0.44-0.001-0.659-0.004h0.033c-0.186 0.002-0.406 0.004-0.626 0.004-29.752 0-53.871-24.119-53.871-53.871 0-0.189 0.001-0.378 0.003-0.567v0.029c0-30.542 23.953-54.495 54.495-54.495z" />
<glyph unicode="&#xe939;" glyph-name="58" d="M997.724 182.745h-28.189c-10.472-51.393-55.953-90.209-110.36-90.209-54.427 0-99.908 38.815-110.379 90.209h-379.479c-10.472-51.393-55.953-90.209-110.379-90.209-54.407 0-99.888 38.815-110.36 90.209h-35.859c-40.999 0-74.346 35.318-74.346 78.674l3.497 36.323c1.13 11.442 10.704 20.307 22.348 20.307 0.805 0 1.6-0.042 2.383-0.125l-0.098 0.008c26.624-1.237 21.446-12.288 20.19-39.955l-3.362-18.76c0.097-16.307 13.235-31.377 29.387-31.377h35.859c10.472 51.393 55.953 90.189 110.36 90.189 54.427 0 99.908-38.796 110.379-90.189h328.762v495.597c0 18.393-13.138 30.411-29.29 30.411h-488.487c-13.254 0-19.553-7.651-28.208-22.219-2.193-10.293-11.208-17.901-22.001-17.901-1.658 0-3.274 0.18-4.83 0.52l0.149-0.027c-12.172-12.539-19.939 14.549-17.389 26.701 7.438 33.599 37.869 60.976 72.279 60.976h488.487c40.999 0 74.346-35.202 74.346-78.462v-114.34h168.535c8.849 0 27.126-5.178 20.519-13.215l86.074-189.846c1.314-2.937 1.99-6.086 1.99-9.313v-191.43c0-12.443-10.085-22.547-22.528-22.547zM258.937 262.134c-37.25 0-67.584-19.553-67.584-56.842s30.334-78.597 67.584-78.597c37.27 0 67.603 41.308 67.603 78.597s-30.334 56.842-67.603 56.842zM859.175 126.696c37.25 0 67.584 41.308 67.584 78.597s-30.334 56.842-67.584 56.842c-37.289 0-67.603-19.553-67.603-56.842s30.314-78.597 67.603-78.597zM897.159 564.002h-80.2c32.382-71.583 85.514-127.594 144.558-141.988l-64.357 141.988zM975.196 278.306h-9.97c-8.791 0-15.94 10.105-15.94 22.567v9.873c0 12.443 7.129 22.547 15.94 22.547h9.95v41.095c-102.226 10.143-186.696 88.489-204.278 189.614h-27.764v-336.2h5.661c10.472 51.393 55.953 90.189 110.379 90.189 54.407 0 99.888-38.796 110.36-90.189h5.661v50.504zM859.175 228.053c12.442 0 22.528-10.086 22.528-22.528s-10.086-22.528-22.528-22.528v0c-12.442 0-22.528 10.086-22.528 22.528s10.086 22.528 22.528 22.528v0zM258.937 182.958c-12.055 0.515-21.633 10.412-21.633 22.547s9.578 22.033 21.587 22.546l0.046 0.002c20.441 0 22.547-10.085 22.547-22.528 0-12.462-2.106-22.567-22.547-22.567zM296.438 576.869c0.116 6.472 0.522 7.149 0.676 7.864 0.464 2.067 0.985 4.115 1.951 5.893 0.406 0.715 1.063 1.275 1.546 1.932 1.159 1.662 2.376 3.265 3.941 4.56 0.213 0.155 0.29 0.406 0.483 0.56l98.555 76.104c20.693 3.053 8.231-7.265 13.892-7.651l211.214 11.399c0.232-0.058 8.752-6.202 11.824-15.341 1.005-14.606 1.121-5.989 0.908-8.965-0.019-0.406-0.019-0.831-0.058-1.237l-15.186-188.493c-1.352-1.14 1.739-2.087-8.115-3.169-1.101-4.985-3.362-9.738-7.709-20.055l-97.55-68.125c-1.063-0.811-2.28-1.217-3.439-5.487-0.889-4.83-1.72-10.433-2.686-14.104 14.394 15.437-5.023 14.935-7.612 14.935h-202.771c-0.696 0-12.597-1.604-16.848 7.554-3.554 3.981-5.726 9.262-5.726 15.051 0 0.892 0.052 1.772 0.152 2.637l-0.010-0.105 22.528 183.083 0.039 1.159zM575.295 477.116l15.032 127.208-30.604-36.555-31.957-127.208 47.529 36.555zM513.951 587.109l39.414 45.655-128.348 0.618-40.11-46.273h129.043zM479.077 412.566l17.176 144.751h-157.426l-17.157-144.751h157.406zM281.484 667.271c0-12.423-2.106-22.528-22.547-22.528h-158.913c-12.423 0-20.615 10.105-20.615 22.528 0-0.947 8.192 22.567 20.615 22.567h158.913c20.441 0 22.547-23.513 22.547-22.567zM143.476 419.27c24.421 0 22.528-12.037 22.528-22.547 0-12.462 1.893-22.547-22.528-22.547h-69.4c-12.444 0.011-22.528 10.102-22.528 22.547v0c0 10.51 10.105 22.547 22.528 22.547h69.4zM210.017 533.977c0-12.462-25.214-22.567-37.656-22.567h-134.492c-12.055 0.515-21.633 10.412-21.633 22.547s9.578 22.033 21.587 22.546l0.046 0.002h134.492c12.443 0 37.656-10.105 37.656-22.528z" />
</font>
</defs>
</svg>
